<?xml version="1.0" standalone="no"?>
<!DOCTYPE svg PUBLIC "-//W3C//DTD SVG 1.1//EN" "http://www.w3.org/Graphics/SVG/1.1/DTD/svg11.dtd">
<svg xmlns="http://www.w3.org/2000/svg">
<metadata>Generated by Fontastic.me</metadata>
<defs>
<font id="untitled-font-1" horiz-adv-x="512">
<font-face font-family="untitled-font-1" units-per-em="512" ascent="480" descent="-32"/>
<missing-glyph horiz-adv-x="512" />

<glyph unicode="&#97;" d="M256 334l57-87-114 0z m104-151l27 0-131 197-131-197 27 0 29 46 150 0z m115 73c0-40-9-77-29-110-20-34-46-60-80-80-33-20-70-29-110-29-40 0-77 9-110 29-34 20-60 46-80 80-20 33-29 70-29 110 0 40 9 77 29 110 20 34 46 60 80 80 33 20 70 29 110 29 40 0 77-9 110-29 34-20 60-46 80-80 20-33 29-70 29-110z"/>
<glyph unicode="&#99;" d="M366 192l0 55c0 3-1 5-3 6-2 2-4 3-6 3l-64 0 0 64c0 3-1 5-3 7-2 1-4 2-7 2l-54 0c-3 0-5-1-7-2-2-2-3-4-3-7l0-64-64 0c-2 0-4-1-6-3-2-1-3-3-3-6l0-55c0-3 1-5 3-7 2-1 4-2 6-2l64 0 0-64c0-3 1-5 3-7 2-1 4-2 7-2l54 0c3 0 5 1 7 2 2 2 3 4 3 7l0 64 64 0c2 0 4 1 6 2 2 2 3 4 3 7z m-183 210l146 0 0 37-146 0z m-110 0l0-365-9 0c-18 0-33 6-45 18-13 13-19 28-19 46l0 237c0 18 6 33 19 45 12 13 27 19 45 19z m338 0l0-365-310 0 0 365 45 0 0 46c0 8 3 14 8 19 6 6 12 8 20 8l164 0c8 0 14-2 20-8 5-5 8-11 8-19l0-46z m101-64l0-237c0-18-6-33-19-46-12-12-27-18-45-18l-9 0 0 365 9 0c18 0 33-6 45-19 13-12 19-27 19-45z"/>
<glyph unicode="&#102;" d="M512 128l0-37c0-5-2-9-5-12-4-4-8-6-13-6l-476 0c-5 0-9 2-13 6-3 3-5 7-5 12l0 37c0 5 2 9 5 13 4 3 8 5 13 5l476 0c5 0 9-2 13-5 3-4 5-8 5-13z m-110 110l0-37c0-5-2-9-5-13-4-3-8-5-13-5l-256 0c-5 0-9 2-13 5-3 4-5 8-5 13l0 37c0 5 2 9 5 13 4 3 8 5 13 5l256 0c5 0 9-2 13-5 3-4 5-8 5-13z m73 109l0-36c0-5-1-9-5-13-4-4-8-5-13-5l-402 0c-5 0-9 1-13 5-4 4-5 8-5 13l0 36c0 5 1 10 5 13 4 4 8 6 13 6l402 0c5 0 9-2 13-6 4-3 5-8 5-13z m-109 110l0-36c0-5-2-10-6-13-3-4-8-6-13-6l-182 0c-5 0-10 2-13 6-4 3-6 8-6 13l0 36c0 5 2 9 6 13 3 4 8 5 13 5l182 0c5 0 10-1 13-5 4-4 6-8 6-13z"/>
<glyph unicode="&#103;" d="M475 128l0-37c0-5-1-9-5-12-4-4-8-6-13-6l-402 0c-5 0-9 2-13 6-4 3-5 7-5 12l0 37c0 5 1 9 5 13 4 3 8 5 13 5l402 0c5 0 9-2 13-5 4-4 5-8 5-13z m0 146l0-36c0-5-1-10-5-13-4-4-8-6-13-6l-402 0c-5 0-9 2-13 6-4 3-5 8-5 13l0 36c0 5 1 10 5 13 4 4 8 6 13 6l402 0c5 0 9-2 13-6 4-3 5-8 5-13z m0 147l0-37c0-5-1-9-5-13-4-3-8-5-13-5l-402 0c-5 0-9 2-13 5-4 4-5 8-5 13l0 37c0 5 1 9 5 12 4 4 8 6 13 6l402 0c5 0 9-2 13-6 4-3 5-7 5-12z"/>
<glyph unicode="&#105;" d="M512 128l0-37c0-5-2-9-5-12-4-4-8-6-13-6l-476 0c-5 0-9 2-13 6-3 3-5 7-5 12l0 37c0 5 2 9 5 13 4 3 8 5 13 5l476 0c5 0 9-2 13-5 3-4 5-8 5-13z m0 110l0-37c0-5-2-9-5-13-4-3-8-5-13-5l-476 0c-5 0-9 2-13 5-3 4-5 8-5 13l0 37c0 5 2 9 5 13 4 3 8 5 13 5l476 0c5 0 9-2 13-5 3-4 5-8 5-13z m0 109l0-36c0-5-2-9-5-13-4-4-8-5-13-5l-476 0c-5 0-9 1-13 5-3 4-5 8-5 13l0 36c0 5 2 10 5 13 4 4 8 6 13 6l476 0c5 0 9-2 13-6 3-3 5-8 5-13z m0 110l0-36c0-5-2-10-5-13-4-4-8-6-13-6l-476 0c-5 0-9 2-13 6-3 3-5 8-5 13l0 36c0 5 2 9 5 13 4 4 8 5 13 5l476 0c5 0 9-1 13-5 3-4 5-8 5-13z"/>
<glyph unicode="&#106;" d="M512 128l0-37c0-5-2-9-5-12-4-4-8-6-13-6l-476 0c-5 0-9 2-13 6-3 3-5 7-5 12l0 37c0 5 2 9 5 13 4 3 8 5 13 5l476 0c5 0 9-2 13-5 3-4 5-8 5-13z m-110 110l0-37c0-5-2-9-5-13-4-3-8-5-13-5l-366 0c-5 0-9 2-13 5-3 4-5 8-5 13l0 37c0 5 2 9 5 13 4 3 8 5 13 5l366 0c5 0 9-2 13-5 3-4 5-8 5-13z m73 109l0-36c0-5-1-9-5-13-4-4-8-5-13-5l-439 0c-5 0-9 1-13 5-3 4-5 8-5 13l0 36c0 5 2 10 5 13 4 4 8 6 13 6l439 0c5 0 9-2 13-6 4-3 5-8 5-13z m-109 110l0-36c0-5-2-10-6-13-3-4-8-6-13-6l-329 0c-5 0-9 2-13 6-3 3-5 8-5 13l0 36c0 5 2 9 5 13 4 4 8 5 13 5l329 0c5 0 10-1 13-5 4-4 6-8 6-13z"/>
<glyph unicode="&#107;" d="M512 128l0-37c0-5-2-9-5-12-4-4-8-6-13-6l-476 0c-5 0-9 2-13 6-3 3-5 7-5 12l0 37c0 5 2 9 5 13 4 3 8 5 13 5l476 0c5 0 9-2 13-5 3-4 5-8 5-13z m0 110l0-37c0-5-2-9-5-13-4-3-8-5-13-5l-366 0c-5 0-9 2-13 5-3 4-5 8-5 13l0 37c0 5 2 9 5 13 4 3 8 5 13 5l366 0c5 0 9-2 13-5 3-4 5-8 5-13z m0 109l0-36c0-5-2-9-5-13-4-4-8-5-13-5l-439 0c-5 0-9 1-13 5-4 4-5 8-5 13l0 36c0 5 1 10 5 13 4 4 8 6 13 6l439 0c5 0 9-2 13-6 3-3 5-8 5-13z m0 110l0-36c0-5-2-10-5-13-4-4-8-6-13-6l-329 0c-5 0-10 2-13 6-4 3-6 8-6 13l0 36c0 5 2 9 6 13 3 4 8 5 13 5l329 0c5 0 9-1 13-5 3-4 5-8 5-13z"/>
<glyph unicode="&#108;" d="M171 119c0 10-4 18-10 25-7 6-15 10-24 10-10 0-18-4-25-10-6-7-10-15-10-25 0-9 4-17 10-24 7-6 15-10 25-10 9 0 17 4 24 10 6 7 10 15 10 24z m-103 137l103 0 0 68-42 0c-3 0-5-1-6-2l-52-52c-2-2-2-4-3-6z m342-137c0 10-4 18-10 25-7 6-15 10-25 10-9 0-17-4-24-10-6-7-10-15-10-25 0-9 4-17 10-24 7-6 15-10 24-10 10 0 18 4 25 10 6 7 10 15 10 24z m34 180l0 51c0 2-1 4-3 6-1 2-3 2-6 2l-60 0 0 60c0 3 0 5-2 6-2 2-4 3-6 3l-51 0c-3 0-5-1-6-3-2-1-3-3-3-6l0-60-60 0c-2 0-4 0-6-2-1-2-2-4-2-6l0-51c0-3 1-5 2-6 2-2 4-3 6-3l60 0 0-60c0-2 1-4 3-6 1-1 3-2 6-2l51 0c2 0 4 1 6 2 2 2 2 4 2 6l0 60 60 0c3 0 5 1 6 3 2 1 3 3 3 6z m68 145l0-307c0-5-2-9-5-12-3-4-7-6-12-6l-51 0c0-18-7-34-20-48-14-13-30-20-49-20-18 0-34 7-48 20-13 14-20 30-20 48l-102 0c0-18-7-34-20-48-14-13-30-20-48-20-19 0-35 7-49 20-13 14-20 30-20 48l-34 0c-4 0-8 2-12 6-3 3-5 7-5 12 0 4 2 8 5 12 4 3 8 5 12 5l0 111c0 4 1 9 4 15 2 6 5 10 8 14l53 52c3 4 8 7 14 9 5 2 10 3 15 3l43 0 0 86c0 4 1 8 5 12 3 3 7 5 12 5l307 0c5 0 9-2 12-5 3-4 5-8 5-12z"/>
<glyph unicode="&#109;" d="M274 439c0 5-2 9-5 13-4 3-8 5-13 5-5 0-9-2-13-5-3-4-5-8-5-13 0-5 2-9 5-13 4-4 8-5 13-5 5 0 9 1 13 5 3 4 5 8 5 13z m238-265l0-101c0-4-2-7-6-8-1-1-2-1-3-1-3 0-5 1-7 3l-26 26c-23-27-53-49-91-65-38-15-79-23-123-23-44 0-85 8-123 23-38 16-68 38-91 65l-26-26c-2-2-4-3-7-3-1 0-2 0-3 1-4 1-6 4-6 8l0 101c0 2 1 5 3 6 1 2 3 3 6 3l101 0c4 0 7-2 8-6 2-3 1-7-2-10l-28-28c12-18 31-32 54-44 23-12 49-20 77-24l0 185-54 0c-5 0-10 2-13 5-4 4-6 8-6 13l0 37c0 5 2 9 6 13 3 3 8 5 13 5l54 0 0 47c-11 6-19 15-26 26-7 11-10 24-10 37 0 20 7 37 21 52 15 14 32 21 52 21 20 0 37-7 52-21 14-15 21-32 21-52 0-13-3-26-10-37-7-11-15-20-26-26l0-47 54 0c5 0 10-2 13-5 4-4 6-8 6-13l0-37c0-5-2-9-6-13-3-3-8-5-13-5l-54 0 0-185c28 4 54 12 77 24 23 12 42 26 54 44l-28 28c-3 3-4 7-2 10 1 4 4 6 8 6l101 0c3 0 5-1 6-3 2-1 3-4 3-6z"/>
<glyph unicode="&#110;" d="M196 374c3 0 5 1 8 3 2 2 3 5 3 8 0 3-1 6-3 8-3 2-5 3-8 3-3 0-6-1-8-3-2-2-3-5-3-8 0-3 1-6 3-8 2-2 5-3 8-3z m120 0c3 0 6 1 8 3 2 2 3 5 3 8 0 3-1 6-3 8-2 2-5 3-8 3-3 0-5-1-8-3-2-2-3-5-3-8 0-3 1-6 3-8 3-2 5-3 8-3z m-232-53c8 0 15-2 21-8 6-6 8-13 8-21l0-123c0-8-2-15-8-20-6-6-13-9-21-9-8 0-15 3-21 9-5 5-8 12-8 20l0 123c0 8 3 15 8 21 6 6 13 8 21 8z m303-5l0-190c0-9-3-16-9-23-6-6-13-9-22-9l-21 0 0-65c0-8-3-15-9-20-6-6-13-9-21-9-8 0-15 3-21 9-5 5-8 12-8 20l0 65-40 0 0-65c0-8-3-15-8-20-6-6-13-9-21-9-8 0-15 3-21 9-5 5-8 12-8 20l-1 65-21 0c-8 0-16 3-22 9-6 7-9 14-9 23l0 190z m-66 116c20-11 37-25 49-44 12-19 18-39 18-62l-264 0c0 23 6 43 18 62 12 19 29 33 49 44l-20 37c-1 3-1 5 1 6 3 1 5 0 6-2l21-38c18 8 37 12 57 12 20 0 39-4 57-12l21 38c1 2 3 3 6 2 2-1 2-3 1-6z m136-140l0-123c0-8-3-15-8-20-6-6-13-9-21-9-8 0-15 3-21 9-6 5-8 12-8 20l0 123c0 8 2 15 8 21 6 6 13 8 21 8 8 0 15-2 21-8 5-6 8-13 8-21z"/>
<glyph unicode="&#112;" d="M399 265c0-2-1-5-3-6l-133-134c-2-1-5-2-7-2-2 0-5 1-7 2l-133 134c-2 1-3 4-3 6 0 3 1 5 3 7l15 14c1 2 4 3 6 3 3 0 5-1 7-3l112-112 112 112c2 2 4 3 7 3 2 0 5-1 6-3l15-14c2-2 3-4 3-7z m0 110c0-3-1-5-3-7l-133-133c-2-2-5-3-7-3-2 0-5 1-7 3l-133 133c-2 2-3 4-3 7 0 2 1 5 3 6l15 15c1 2 4 3 6 3 3 0 5-1 7-3l112-113 112 113c2 2 4 3 7 3 2 0 5-1 6-3l15-15c2-1 3-4 3-6z"/>
<glyph unicode="&#113;" d="M289 119c0-3-1-5-3-7l-14-14c-2-2-4-3-7-3-2 0-5 1-6 3l-134 133c-1 2-2 4-2 7 0 2 1 4 2 6l134 133c1 2 4 3 6 3 3 0 5-1 7-3l14-14c2-2 3-4 3-6 0-3-1-5-3-7l-112-112 112-113c2-1 3-4 3-6z m110 0c0-3-1-5-3-7l-15-14c-1-2-4-3-6-3-3 0-5 1-7 3l-133 133c-2 2-3 4-3 7 0 2 1 4 3 6l133 133c2 2 4 3 7 3 2 0 5-1 6-3l15-14c2-2 3-4 3-6 0-3-1-5-3-7l-113-112 113-113c2-1 3-4 3-6z"/>
<glyph unicode="&#114;" d="M280 238c0-3-1-5-3-7l-133-133c-2-2-4-3-7-3-2 0-5 1-6 3l-15 14c-2 2-3 4-3 7 0 2 1 5 3 6l113 113-113 112c-2 2-3 4-3 7 0 2 1 4 3 6l15 14c1 2 4 3 6 3 3 0 5-1 7-3l133-133c2-2 3-4 3-6z m109 0c0-3-1-5-2-7l-134-133c-1-2-4-3-6-3-3 0-5 1-7 3l-14 14c-2 2-3 4-3 7 0 2 1 5 3 6l112 113-112 112c-2 2-3 4-3 7 0 2 1 4 3 6l14 14c2 2 4 3 7 3 2 0 5-1 6-3l134-133c1-2 2-4 2-6z"/>
<glyph unicode="&#115;" d="M403 256c0 5-1 10-5 13l-103 104-26 26c-4 3-8 5-13 5-5 0-9-2-13-5l-26-26-103-104c-4-3-5-8-5-13 0-5 1-9 5-13l26-26c3-3 7-5 13-5 5 0 9 2 12 5l54 54 0-143c0-5 2-9 6-13 3-3 8-5 13-5l36 0c5 0 10 2 13 5 4 4 6 8 6 13l0 143 54-54c3-3 7-5 12-5 5 0 10 2 13 5l26 26c4 4 5 8 5 13z m72 0c0-40-9-77-29-110-20-34-46-60-80-80-33-20-70-29-110-29-40 0-77 9-110 29-34 20-60 46-80 80-20 33-29 70-29 110 0 40 9 77 29 110 20 34 46 60 80 80 33 20 70 29 110 29 40 0 77-9 110-29 34-20 60-46 80-80 20-33 29-70 29-110z"/>
<glyph unicode="&#116;" d="M375 256c0-7-3-12-9-16l-156-91c-3-2-6-3-9-3-3 0-6 1-9 3-6 3-9 9-9 16l0 182c0 7 3 13 9 16 6 4 12 4 18 0l156-91c6-4 9-9 9-16z m36 0c0 28-7 54-20 78-14 24-33 43-57 57-24 13-50 20-78 20-28 0-54-7-78-20-24-14-43-33-57-57-13-24-20-50-20-78 0-28 7-54 20-78 14-24 33-43 57-57 24-13 50-20 78-20 28 0 54 7 78 20 24 14 43 33 57 57 13 24 20 50 20 78z m64 0c0-40-9-77-29-110-20-34-46-60-80-80-33-20-70-29-110-29-40 0-77 9-110 29-34 20-60 46-80 80-20 33-29 70-29 110 0 40 9 77 29 110 20 34 46 60 80 80 33 20 70 29 110 29 40 0 77-9 110-29 34-20 60-46 80-80 20-33 29-70 29-110z"/>
<glyph unicode="&#117;" d="M404 256c0 5-2 9-5 13l-26 26-104 103c-3 4-8 5-13 5-5 0-9-1-13-5l-26-26c-3-3-5-7-5-13 0-5 2-9 5-12l54-54-143 0c-5 0-9-2-13-6-3-3-5-8-5-13l0-36c0-5 2-10 5-13 4-4 8-6 13-6l143 0-54-54c-3-3-5-7-5-12 0-5 2-10 5-13l26-26c4-4 8-5 13-5 5 0 10 1 13 5l104 103 26 26c3 4 5 8 5 13z m71 0c0-40-9-77-29-110-20-34-46-60-80-80-33-20-70-29-110-29-40 0-77 9-110 29-34 20-60 46-80 80-20 33-29 70-29 110 0 40 9 77 29 110 20 34 46 60 80 80 33 20 70 29 110 29 40 0 77-9 110-29 34-20 60-46 80-80 20-33 29-70 29-110z"/>
<glyph unicode="&#121;" d="M402 238l0 36c0 5-2 10-5 13-4 4-8 6-13 6l-143 0 54 54c3 3 5 7 5 12 0 5-2 10-5 13l-26 26c-4 4-8 5-13 5-5 0-10-1-13-5l-104-103-26-26c-3-4-5-8-5-13 0-5 2-9 5-13l26-26 104-103c3-4 8-5 13-5 5 0 9 1 13 5l26 26c3 3 5 7 5 13 0 5-2 9-5 12l-54 54 143 0c5 0 9 2 13 6 3 3 5 8 5 13z m73 18c0-40-9-77-29-110-20-34-46-60-80-80-33-20-70-29-110-29-40 0-77 9-110 29-34 20-60 46-80 80-20 33-29 70-29 110 0 40 9 77 29 110 20 34 46 60 80 80 33 20 70 29 110 29 40 0 77-9 110-29 34-20 60-46 80-80 20-33 29-70 29-110z"/>
<glyph unicode="&#66;" d="M357 247c0-2-1-5-3-7l-91-91c-3-2-5-3-7-3-2 0-4 1-7 3l-91 91c-3 3-4 7-2 10 2 4 4 6 9 6l54 0 0 101c0 2 1 4 3 6 2 2 4 3 7 3l54 0c3 0 5-1 7-3 2-2 3-4 3-6l0-101 54 0c3 0 5-1 7-3 2-1 3-3 3-6z m-101 164c-28 0-54-7-78-20-24-14-43-33-57-57-13-24-20-50-20-78 0-28 7-54 20-78 14-24 33-43 57-57 24-13 50-20 78-20 28 0 54 7 78 20 24 14 43 33 57 57 13 24 20 50 20 78 0 28-7 54-20 78-14 24-33 43-57 57-24 13-50 20-78 20z m219-155c0-40-9-77-29-110-20-34-46-60-80-80-33-20-70-29-110-29-40 0-77 9-110 29-34 20-60 46-80 80-20 33-29 70-29 110 0 40 9 77 29 110 20 34 46 60 80 80 33 20 70 29 110 29 40 0 77-9 110-29 34-20 60-46 80-80 20-33 29-70 29-110z"/>
<glyph unicode="&#67;" d="M403 256c0 5-1 9-5 13l-26 26c-3 3-7 5-13 5-5 0-9-2-12-5l-54-54 0 143c0 5-2 9-6 13-3 3-8 5-13 5l-36 0c-5 0-10-2-13-5-4-4-6-8-6-13l0-143-54 54c-3 3-7 5-12 5-5 0-10-2-13-5l-26-26c-4-4-5-8-5-13 0-5 1-10 5-13l103-104 26-26c4-3 8-5 13-5 5 0 9 2 13 5l26 26 103 104c4 3 5 8 5 13z m72 0c0-40-9-77-29-110-20-34-46-60-80-80-33-20-70-29-110-29-40 0-77 9-110 29-34 20-60 46-80 80-20 33-29 70-29 110 0 40 9 77 29 110 20 34 46 60 80 80 33 20 70 29 110 29 40 0 77-9 110-29 34-20 60-46 80-80 20-33 29-70 29-110z"/>
<glyph unicode="&#69;" d="M311 274c0 5-2 10-6 13-3 4-7 6-12 6l-74 0c-5 0-9-2-12-6-4-3-6-8-6-13 0-5 2-9 6-13 3-3 7-5 12-5l74 0c5 0 9 2 12 5 4 4 6 8 6 13z m164 55l0-274c0-5-1-9-5-13-4-4-8-5-13-5l-402 0c-5 0-9 1-13 5-4 4-5 8-5 13l0 274c0 5 1 9 5 13 4 4 8 5 13 5l402 0c5 0 9-1 13-5 4-4 5-8 5-13z m19 128l0-73c0-5-2-9-6-13-3-3-8-5-13-5l-438 0c-5 0-10 2-13 5-4 4-6 8-6 13l0 73c0 5 2 9 6 13 3 4 8 5 13 5l438 0c5 0 10-1 13-5 4-4 6-8 6-13z"/>
<glyph unicode="&#70;" d="M453 165c-8-24-19-48-35-72-25-37-49-56-74-56-9 0-22 3-40 10-16 6-30 9-43 9-11 0-25-3-40-10-16-6-28-9-38-9-29 0-58 24-86 74-28 49-42 97-42 143 0 44 11 79 32 107 21 28 49 41 81 41 14 0 31-3 51-8 20-6 33-9 39-9 9 0 22 3 41 10 20 6 36 10 50 10 22 0 43-7 60-19 10-7 20-16 30-29-15-12-26-24-32-33-13-18-19-38-19-59 0-24 7-45 20-64 13-19 28-31 45-36z m-108 335c0-12-2-25-8-39-6-14-14-27-26-39-11-11-21-17-31-21-7-2-17-4-30-5 1 29 8 53 22 74 14 20 38 34 72 42 0-1 0-2 0-3 1-2 1-3 1-3 0-1 0-2 0-3 0-1 0-2 0-3z"/>
<glyph unicode="&#76;" d="M399 174c0-3-1-5-3-7l-15-14c-1-2-4-3-6-3-3 0-5 1-7 3l-112 112-112-112c-2-2-4-3-7-3-2 0-5 1-6 3l-15 14c-2 2-3 4-3 7 0 2 1 4 3 6l133 133c2 2 5 3 7 3 2 0 5-1 7-3l133-133c2-2 3-4 3-6z"/>
<glyph unicode="&#77;" d="M335 238c0-3-1-5-3-7l-133-133c-2-2-5-3-7-3-2 0-5 1-7 3l-14 14c-2 2-3 4-3 7 0 2 1 5 3 6l112 113-112 112c-2 2-3 4-3 7 0 2 1 4 3 6l14 14c2 2 5 3 7 3 2 0 5-1 7-3l133-133c2-2 3-4 3-6z"/>
<glyph unicode="&#78;" d="M344 357c0-3-1-5-3-7l-112-112 112-113c2-1 3-4 3-6 0-3-1-5-3-7l-14-14c-2-2-5-3-7-3-2 0-5 1-7 3l-133 133c-2 2-3 4-3 7 0 2 1 4 3 6l133 133c2 2 5 3 7 3 2 0 5-1 7-3l14-14c2-2 3-4 3-6z"/>
<glyph unicode="&#79;" d="M399 302c0-3-1-5-3-7l-133-133c-2-2-5-3-7-3-2 0-5 1-7 3l-133 133c-2 2-3 4-3 7 0 2 1 4 3 6l15 15c1 1 4 2 6 2 3 0 5-1 7-2l112-113 112 113c2 1 4 2 7 2 2 0 5-1 6-2l15-15c2-2 3-4 3-6z"/>
<glyph unicode="&#83;" d="M399 137c0-2-1-5-3-6l-15-15c-1-2-4-3-6-3-3 0-5 1-7 3l-112 113-112-113c-2-2-4-3-7-3-2 0-5 1-6 3l-15 15c-2 1-3 4-3 6 0 3 1 5 3 7l133 133c2 2 5 3 7 3 2 0 5-1 7-3l133-133c2-2 3-4 3-7z m0 110c0-3-1-5-3-7l-15-14c-1-2-4-3-6-3-3 0-5 1-7 3l-112 112-112-112c-2-2-4-3-7-3-2 0-5 1-6 3l-15 14c-2 2-3 4-3 7 0 2 1 5 3 6l133 134c2 1 5 2 7 2 2 0 5-1 7-2l133-134c2-1 3-4 3-6z"/>
<glyph unicode="&#88;" d="M356 262c-2-4-4-6-9-6l-54 0 0-101c0-2-1-4-3-6-2-2-4-3-7-3l-54 0c-3 0-5 1-7 3-2 2-3 4-3 6l0 101-54 0c-3 0-5 1-7 3-2 1-3 3-3 6 0 2 1 5 3 7l91 91c3 2 5 3 7 3 2 0 4-1 7-3l91-91c3-3 4-7 2-10z m-100 149c-28 0-54-7-78-20-24-14-43-33-57-57-13-24-20-50-20-78 0-28 7-54 20-78 14-24 33-43 57-57 24-13 50-20 78-20 28 0 54 7 78 20 24 14 43 33 57 57 13 24 20 50 20 78 0 28-7 54-20 78-14 24-33 43-57 57-24 13-50 20-78 20z m219-155c0-40-9-77-29-110-20-34-46-60-80-80-33-20-70-29-110-29-40 0-77 9-110 29-34 20-60 46-80 80-20 33-29 70-29 110 0 40 9 77 29 110 20 34 46 60 80 80 33 20 70 29 110 29 40 0 77-9 110-29 34-20 60-46 80-80 20-33 29-70 29-110z"/>
<glyph unicode="&#90;" d="M479 274c0-10-4-18-11-25l-186-187c-7-7-16-10-26-10-10 0-19 3-26 10l-186 187c-7 6-11 15-11 25 0 10 4 19 11 26l21 22c8 7 17 10 26 10 11 0 19-3 26-10l84-84 0 201c0 10 4 18 11 26 7 7 16 10 26 10l36 0c10 0 19-3 26-10 7-8 11-16 11-26l0-201 84 84c7 7 15 10 26 10 9 0 18-3 26-10l21-22c7-7 11-16 11-26z"/>
<glyph unicode="&#55;" d="M365 141c1-4 1-7-2-10l-100-110c-1-2-4-3-6-3-3 0-5 1-7 3l-101 110c-3 3-3 6-2 10 2 3 5 5 8 5l64 0 0 357c0 3 1 5 3 6 2 2 4 3 7 3l54 0c3 0 5-1 7-3 2-1 3-3 3-6l0-357 64 0c4 0 6-2 8-5z"/>
<glyph unicode="&#34;" d="M512 256c0-5-2-9-5-13l-74-73c-3-4-7-5-12-5-5 0-10 1-13 5-4 4-6 8-6 13l0 36-292 0 0-36c0-5-2-9-6-13-3-4-8-5-13-5-5 0-9 1-12 5l-74 73c-3 4-5 8-5 13 0 5 2 9 5 13l74 73c3 4 7 5 12 5 5 0 10-1 13-5 4-4 6-8 6-13l0-36 292 0 0 36c0 5 2 9 6 13 3 4 8 5 13 5 5 0 9-1 12-5l74-73c3-4 5-8 5-13z"/>
<glyph unicode="&#36;" d="M475 256l0-37c0-10-3-18-9-25-6-8-14-11-24-11l-201 0 84-84c7-7 10-16 10-26 0-10-3-19-10-26l-22-21c-7-7-15-11-26-11-9 0-18 4-26 11l-186 186c-7 7-10 16-10 26 0 10 3 18 10 26l186 185c8 8 16 11 26 11 10 0 19-3 26-11l22-21c7-7 10-16 10-26 0-10-3-18-10-26l-84-83 201 0c10 0 18-4 24-11 6-7 9-16 9-26z"/>
<glyph unicode="&#39;" d="M512 283l0-54c0-3-1-5-3-7-1-2-3-3-6-3l-357 0 0-64c0-4-2-6-5-8-4-1-7-1-10 2l-110 100c-2 1-3 4-3 6 0 3 1 5 3 7l110 101c3 3 6 3 10 2 3-2 5-5 5-8l0-64 357 0c3 0 5-1 6-3 2-2 3-4 3-7z"/>
<glyph unicode="&#40;" d="M457 238c0-11-3-19-10-26l-186-186c-8-7-17-11-26-11-10 0-19 4-26 11l-22 21c-7 7-10 16-10 26 0 10 3 19 10 26l84 84-201 0c-10 0-18 3-24 11-6 7-9 15-9 25l0 37c0 10 3 19 9 26 6 7 14 11 24 11l201 0-84 84c-7 6-10 15-10 25 0 11 3 19 10 26l22 21c7 8 16 11 26 11 10 0 18-3 26-11l186-186c7-6 10-15 10-25z"/>
<glyph unicode="&#41;" d="M494 257c0-3-1-5-3-7l-110-101c-3-3-6-3-10-2-3 2-5 5-5 8l0 64-357 0c-3 0-5 1-6 3-2 2-3 4-3 7l0 54c0 3 1 5 3 7 1 2 3 3 6 3l357 0 0 64c0 4 2 6 5 8 4 1 7 1 10-2l110-100c2-1 3-4 3-6z"/>
<glyph unicode="&#42;" d="M479 235c0-10-4-19-11-26l-21-22c-8-7-16-10-26-10-11 0-19 3-26 10l-84 84 0-201c0-10-4-18-11-24-7-6-16-9-26-9l-36 0c-10 0-19 3-26 9-7 6-11 14-11 24l0 201-84-84c-7-7-15-10-26-10-10 0-18 3-25 10l-22 22c-7 7-11 16-11 26 0 10 4 18 11 26l186 186c7 7 16 10 26 10 10 0 19-3 26-10l186-186c7-8 11-17 11-26z"/>
<glyph unicode="&#43;" d="M365 371c-2-3-5-5-8-5l-64 0 0-357c0-3-1-5-3-6-2-2-4-3-7-3l-54 0c-3 0-5 1-7 3-2 1-3 3-3 6l0 357-64 0c-4 0-6 2-8 5-1 4-1 7 2 10l100 110c1 2 4 3 6 3 3 0 5-1 7-3l101-110c3-3 3-6 2-10z"/>
<glyph unicode="&#44;" d="M347 421c0-5-1-10-5-13-4-4-8-6-13-6l-36 0 0-292 36 0c5 0 9-2 13-6 4-3 5-8 5-13 0-5-1-9-5-12l-73-74c-4-3-8-5-13-5-5 0-9 2-13 5l-73 74c-4 3-5 7-5 12 0 5 1 10 5 13 4 4 8 6 13 6l36 0 0 292-36 0c-5 0-9 2-13 6-4 3-5 8-5 13 0 5 1 9 5 12l73 74c4 3 8 5 13 5 5 0 9-2 13-5l73-74c4-3 5-7 5-12z"/>
<glyph unicode="&#45;" d="M442 212c8-5 14-12 17-22 2-10 1-19-4-28l-18-31c-5-9-12-15-22-17-10-3-19-2-28 3l-76 44 0-88c0-10-4-18-11-26-7-7-16-10-26-10l-36 0c-10 0-19 3-26 10-7 8-11 16-11 26l0 88-76-44c-9-5-18-6-28-3-10 2-17 8-22 17l-18 31c-5 9-6 18-4 28 3 10 9 17 17 22l76 44-76 44c-8 5-14 12-17 22-2 10-1 19 4 28l18 31c5 9 12 15 22 17 10 3 19 2 28-3l76-44 0 88c0 10 4 18 11 26 7 7 16 10 26 10l36 0c10 0 19-3 26-10 7-8 11-16 11-26l0-88 76 44c9 5 18 6 28 3 10-2 17-8 22-17l18-31c5-9 6-18 4-28-3-10-9-17-17-22l-76-44z"/>
<glyph unicode="&#46;" d="M481 472c3 3 7 5 9 3 2-1 4-4 4-9l0-420c0-5-2-8-4-9-2-2-6 0-9 3l-203 203c-2 2-3 4-4 6l0-203c0-5-1-8-3-9-3-2-6 0-10 3l-202 203c-4 4-6 8-6 13 0 5 2 9 6 13l202 203c4 3 7 5 10 3 2-1 3-4 3-9l0-203c1 3 2 4 4 6z"/>
<glyph unicode="&#58;" d="M183 402l146 0 0 37-146 0z m-101 0l0-365-18 0c-18 0-33 6-45 18-13 13-19 28-19 46l0 237c0 18 6 33 19 45 12 13 27 19 45 19z m320 0l0-365-292 0 0 365 36 0 0 46c0 8 3 14 8 19 6 6 12 8 20 8l164 0c8 0 14-2 20-8 5-5 8-11 8-19l0-46z m110-64l0-237c0-18-6-33-19-46-12-12-27-18-45-18l-18 0 0 365 18 0c18 0 33-6 45-19 13-12 19-27 19-45z"/>
<glyph unicode="&#59;" d="M329 238l90 0c0 0 0 1-1 2 0 1 0 2 0 2l-61 142-202 0-61-142c0 0 0-1 0-2-1-1-1-2-1-2l90 0 27-55 92 0z m146-9l0-138c0-5-1-9-5-12-4-4-8-6-13-6l-402 0c-5 0-9 2-13 6-4 3-5 7-5 12l0 138c0 12 2 24 7 35l68 158c2 5 5 9 10 12 5 3 10 5 15 5l238 0c5 0 10-2 15-5 5-3 8-7 10-12l68-158c5-11 7-23 7-35z"/>
<glyph unicode="&#60;" d="M406 475c4 0 8 0 12-2 7-3 12-7 15-12 4-5 6-11 6-18l0-368c0-6-2-12-6-18-3-5-8-9-15-11-3-2-8-3-12-3-9 0-17 3-24 10l-126 121-126-121c-7-7-15-10-24-10-4 0-8 1-12 3-7 2-12 6-15 11-4 6-6 12-6 18l0 368c0 7 2 13 6 18 3 5 8 9 15 12 4 2 8 2 12 2z"/>
<glyph unicode="&#61;" d="M487 375c7-10 9-23 5-36l-79-259c-3-12-11-23-22-31-11-8-22-12-35-12l-263 0c-15 0-29 5-43 15-13 10-23 23-28 37-5 13-5 25-1 37 0 0 0 3 1 7 1 5 1 8 1 11 0 2 0 4-1 6 0 3-1 5-1 6 1 2 2 4 3 6 1 2 2 4 4 6 2 3 4 5 5 7 5 7 9 16 13 26 4 10 7 19 9 26 0 2 0 5 0 9-1 4-1 6 0 8 0 2 2 5 4 8 3 3 5 5 5 7 4 6 8 15 12 26 4 11 7 19 7 26 1 1 0 4 0 9-1 4-1 7 0 8 1 2 3 5 6 8 4 4 6 6 6 7 4 5 8 13 13 24 4 11 7 20 7 28 1 1 0 4 0 7-1 3-1 6-1 7 0 2 1 4 3 6 1 1 3 4 5 6 2 3 3 5 5 6 1 2 3 5 4 9 2 3 3 7 5 10 1 3 2 6 4 10 2 4 4 7 6 9 2 3 4 5 7 7 3 2 7 3 11 3 3 0 8 0 13-1l0-1c7 2 12 2 14 2l218 0c14 0 25-5 32-16 8-10 10-23 6-37l-79-259c-7-22-13-37-20-43-7-7-19-10-37-10l-248 0c-5 0-9-2-11-5-2-3-2-7 0-12 4-13 18-20 41-20l264 0c5 0 10 2 16 5 5 3 8 6 10 11l85 282c2 5 2 10 2 17 7-3 13-7 17-13z m-304 0c-1-3-1-5 0-7 1-1 3-2 6-2l174 0c2 0 4 1 7 2 2 2 4 4 5 7l6 18c0 3 0 5-1 7-1 1-3 2-6 2l-173 0c-3 0-5-1-8-2-2-2-4-4-4-7z m-24-73c-1-3-1-5 0-7 2-2 3-2 6-2l174 0c2 0 5 0 7 2 3 2 4 4 5 7l6 18c1 2 0 5-1 6-1 2-3 3-5 3l-174 0c-3 0-5-1-7-3-3-1-4-4-5-6z"/>
<glyph unicode="&#62;" d="M213 77c15-6 28-9 40-9 25 0 46 4 62 12 16 8 28 19 35 32 7 14 11 31 11 52 0 22-4 39-12 51-11 18-24 30-40 36-15 7-39 10-71 10-14 0-23-1-29-3l0-41 0-50 1-77c0-3 1-7 3-13z m-4 214c9-2 19-2 32-2 33 0 58 6 75 18 17 13 25 34 25 64 0 21-8 39-24 54-16 14-40 21-73 21-10 0-22-1-37-4 0-8 0-15 1-22 1-23 2-50 1-79l0-28c0-9 0-16 0-22z m-154-254l0 26c9 2 15 3 20 4 15 2 26 5 35 9 3 5 5 10 6 14 2 13 3 31 3 56l-1 142c-1 48-2 87-3 115 0 17-1 27-3 31 0 1-1 2-3 4-4 2-10 3-20 4-6 0-16 2-32 4l-2 23 75 2 108 4 13 0c1 0 2 0 4 0 2 0 3 0 4 0 0 0 2 0 6 0 4 0 8 0 12 0l21 0c17 0 35-2 55-8 8-2 17-6 27-11 11-5 21-12 29-21 9-9 15-19 19-30 4-11 6-23 6-35 0-13-3-26-9-37-7-11-16-21-28-30-5-3-19-11-42-22 33-7 59-21 76-41 17-20 26-43 26-68 0-14-3-30-8-46-4-12-11-23-20-33-13-14-26-24-40-31-14-7-34-13-58-17-16-3-35-4-57-3l-56 1c-16 0-45-1-85-3-7-1-33-2-78-3z"/>
<glyph unicode="&#64;" d="M407 329c3-35-9-59-38-74 22-5 39-15 50-29 11-14 15-35 13-61-1-14-4-26-9-36-5-10-11-19-19-25-7-7-16-13-27-17-11-4-23-8-35-10-12-2-26-3-42-4l0-73-44 0 0 72c-15 0-27 0-35 0l0-72-44 0 0 73c-3 0-8 0-15 0-7 0-12 0-16 0l-57 0 9 52 32 0c9 0 15 5 16 15l0 115 5 0c-1 0-3 0-5 0l0 82c-2 13-11 20-25 20l-32 0 0 46 61 0c12 0 21 0 27 0l0 72 44 0 0-70c16 0 28 0 35 0l0 70 44 0 0-72c15-1 29-3 40-6 12-3 23-7 33-13 9-5 17-13 23-22 6-9 9-20 11-33z m-62-156c0 7-1 13-4 19-3 5-7 9-11 13-4 3-9 6-16 9-7 2-13 4-19 5-6 1-13 2-21 2-8 1-15 1-20 1-4 0-11 0-18 0-8 0-12 0-14 0l0-97c2 0 5 0 11 0 5 0 10 0 14 0 3 0 8 0 15 0 6 1 12 1 16 1 5 1 11 2 17 3 6 1 11 2 16 4 4 1 8 3 13 6 5 2 9 5 11 8 3 4 6 7 7 12 2 4 3 9 3 14z m-20 136c0 7-1 12-4 17-2 5-5 9-8 12-4 3-8 6-14 8-6 2-11 4-16 5-5 1-10 2-17 2-7 1-13 1-17 1-4 0-9 0-15 0-7-1-10-1-12-1l0-87c1 0 5 0 10 0 6-1 10-1 13 0 4 0 8 0 15 0 6 0 11 1 15 2 5 0 10 2 15 3 6 1 10 3 14 5 4 2 7 5 11 8 3 3 6 6 7 11 2 4 3 9 3 14z"/>
<glyph unicode="&#91;" d="M279 263c0 9-4 15-12 19-8 5-15 5-22 1-8-4-12-11-12-21 0-10 4-17 12-20 8-5 16-4 24 1 8 5 11 12 10 20z m23 5c1-13-2-24-11-35-8-10-18-16-31-17-13-1-24 3-34 11-10 9-15 20-16 33 0 9 2 18 7 26 6 9 12 15 21 19 13 5 27 5 40-3 14-8 22-19 24-34z m49 112c-4-4-9-8-15-10-7-2-12-4-16-5-3 0-9-1-18-2-29-4-60-4-92 0-9 1-15 2-18 3-4 1-9 2-15 4-7 3-12 6-16 10 3 3 6 6 10 9 5 2 9 3 12 4 3 1 8 1 13 2 38 7 77 7 117 1 6-1 11-2 14-3 4 0 8-2 13-4 4-3 8-6 11-9z m12-213c0 1 0 3 1 7 1 4 2 7 1 9 0 3-2 4-5 5-30-20-65-30-104-30-39 0-74 10-105 30l-3-2-1-3c5-29 8-49 11-60 9-16 29-26 59-31 47-9 88-4 122 15 6 4 11 9 14 15 3 6 5 14 6 24 2 10 3 17 4 21z m37 198c2 10 1 17-2 21-8 10-23 19-45 25-41 12-87 16-139 10-25-2-46-6-64-13-8-3-13-5-17-7-4-2-9-5-14-10-5-4-7-9-8-15 1-13 3-26 5-39 2-14 5-30 9-49 3-20 5-33 6-39 1-1 1-4 2-9 1-5 1-9 2-11 0-1 2-4 3-7 2-4 4-6 7-8 20-16 47-25 81-29 49-5 91 1 125 18 5 3 9 5 12 7 3 2 6 4 9 8 3 4 4 7 5 11 9 51 17 96 23 136z m75 28l0-274c0-23-8-42-24-58-16-16-35-24-58-24l-274 0c-23 0-42 8-58 24-16 16-24 35-24 58l0 274c0 23 8 42 24 58 16 16 35 24 58 24l274 0c23 0 42-8 58-24 16-16 24-35 24-58z"/>
<glyph unicode="&#93;" d="M288 267c1-12-4-22-15-29-11-8-21-8-32-2-7 3-12 9-15 17-3 7-3 15 0 23 3 8 8 13 15 17 7 3 14 4 21 3 7-1 13-5 18-10 5-6 8-12 8-19z m31 6c-2 20-13 36-32 46-19 11-37 13-56 4-12-5-22-14-29-25-7-12-10-24-10-37 1-17 8-32 22-44 14-13 30-18 48-16 17 1 32 9 43 24 12 14 17 30 14 48z m69 154c-4 6-9 10-16 13-7 3-13 6-17 6-4 1-11 2-20 4-56 9-109 9-162-1-8-1-14-2-19-3-4-1-9-3-15-6-7-4-11-8-15-13 6-5 13-9 22-13 9-3 16-5 21-6 5-1 14-2 25-3 43-6 86-6 128 0 12 1 21 2 26 3 5 1 12 3 20 6 9 3 16 8 22 13z m16-295c-2-5-3-13-4-22-2-10-3-18-4-24-2-7-4-13-9-20-4-7-9-12-16-16-17-9-35-16-54-21-20-4-39-6-58-6-19 0-38 2-58 5-8 2-16 4-23 5-7 2-14 5-22 8-8 3-14 8-21 13-6 5-11 10-14 17-5 18-11 46-17 84l2 4 5 3c43-28 91-43 145-43 54 0 102 15 145 43 4-1 6-4 7-7 0-3 0-7-2-13-1-5-2-9-2-10z m52 274c-5-32-16-94-32-187-1-6-4-11-8-16-4-5-8-9-12-11-4-3-9-6-16-9-48-24-106-33-174-25-47 5-85 18-113 39-2 3-5 5-7 8-2 3-3 6-5 10-1 4-2 7-2 10-1 2-1 6-2 11-1 5-1 8-2 10-1 10-4 24-7 43-3 19-6 34-8 46-2 12-4 26-7 42-2 17-4 32-6 45 0 5 2 10 5 14 3 4 6 8 9 11 3 3 7 6 13 8 5 3 9 5 13 7 3 1 8 3 14 5 23 9 53 15 89 18 72 7 137 3 193-14 30-9 50-20 62-35 3-4 4-8 4-14 0-6 0-11-1-16z"/>
<glyph unicode="&#94;" d="M261 27c0 3-2 5-5 5-11 0-21 4-29 12-8 8-12 18-12 29 0 3-2 5-5 5-3 0-4-2-4-5 0-14 5-26 14-35 10-10 22-15 36-15 3 0 5 1 5 4z m-190 83l370 0c-31 34-54 73-70 117-16 44-24 90-24 139 0 48-30 73-91 73-61 0-91-25-91-73 0-49-8-95-24-139-16-44-39-83-70-117z m423 0c0-10-4-19-11-26-7-7-16-11-26-11l-128 0c0-20-7-37-21-52-15-14-32-21-52-21-20 0-37 7-52 21-14 15-21 32-21 52l-128 0c-10 0-19 4-26 11-7 7-11 16-11 26 36 30 64 68 82 113 19 45 28 93 28 143 0 31 9 56 27 75 19 18 44 29 76 33-2 3-2 7-2 11 0 7 2 14 8 19 5 5 11 8 19 8 8 0 14-3 19-8 6-5 8-12 8-19 0-4 0-8-2-11 32-4 57-15 76-33 18-19 27-44 27-75 0-50 9-98 28-143 18-45 46-83 82-113z"/>
<glyph unicode="&#95;" d="M261 27c0 3-2 5-5 5-11 0-21 4-29 12-8 8-12 18-12 29 0 3-2 5-5 5-3 0-4-2-4-5 0-14 5-26 14-35 10-10 22-15 36-15 3 0 5 1 5 4z m233 83c0-10-4-19-11-26-7-7-16-11-26-11l-128 0c0-20-7-37-21-52-15-14-32-21-52-21-20 0-37 7-52 21-14 15-21 32-21 52l-128 0c-10 0-19 4-26 11-7 7-11 16-11 26 36 30 64 68 82 113 19 45 28 93 28 143 0 31 9 56 27 75 19 18 44 29 76 33-2 3-2 7-2 11 0 7 2 14 8 19 5 5 11 8 19 8 8 0 14-3 19-8 6-5 8-12 8-19 0-4 0-8-2-11 32-4 57-15 76-33 18-19 27-44 27-75 0-50 9-98 28-143 18-45 46-83 82-113z"/>
<glyph unicode="&#96;" d="M201 256l0 110-73 0 0-73c0-11 4-19 11-26 7-7 15-11 26-11z m293-128l0-55-329 0 0 55 36 55-36 0c-31 0-57 11-78 32-21 21-32 47-32 78l0 91-18 18 9 37 137 0 9 36 274 0 9-54-18-10 0-228z"/>
<glyph unicode="&#123;" d="M18 73l-18 0 0 402 18 0z m18 0l-9 0 0 402 9 0z m27 0l-9 0 0 402 9 0z m45 0l-9 0 0 402 9 0z m45 0l-18 0 0 402 18 0z m36 0l-9 0 0 402 9 0z m18 0l-9 0 0 402 9 0z m18 0l-9 0 0 402 9 0z m44 0l-18 0 0 402 18 0z m45 0l-18 0 0 402 18 0z m36 0l-18 0 0 402 18 0z m36 0l-18 0 0 402 18 0z m27 0l-18 0 0 402 18 0z m54 0l-27 0 0 402 27 0z m18 0l-9 0 0 402 9 0z m27 0l-18 0 0 402 18 0z"/>
<glyph unicode="&#124;" d="M137 222l0-103-69 0 0 103z m102 136l0-239-68 0 0 239z m102-68l0-171-68 0 0 171z m103 103l0-274-69 0 0 274z m34-299l0 324c0 2-1 4-3 6-1 2-3 3-6 3l-426 0c-3 0-5-1-6-3-2-2-3-4-3-6l0-324c0-2 1-4 3-6 1-2 3-3 6-3l426 0c3 0 5 1 6 3 2 2 3 4 3 6z m34 324l0-324c0-12-4-22-13-30-8-9-18-13-30-13l-426 0c-12 0-22 4-30 13-9 8-13 18-13 30l0 324c0 12 4 22 13 30 8 9 18 13 30 13l426 0c12 0 22-4 30-13 9-8 13-18 13-30z"/>
<glyph unicode="&#125;" d="M183 439l146 0 0 36-146 0z m329-183l0-137c0-13-4-23-13-32-9-9-20-14-33-14l-420 0c-13 0-24 5-33 14-9 9-13 19-13 32l0 137 192 0 0-46c0-5 2-9 5-13 4-3 8-5 13-5l92 0c5 0 9 2 13 5 3 4 5 8 5 13l0 46z m-219 0l0-37-74 0 0 37z m219 137l0-110-512 0 0 110c0 13 4 23 13 32 9 9 20 14 33 14l100 0 0 46c0 7 3 14 8 19 6 5 12 8 20 8l164 0c8 0 14-3 20-8 5-5 8-12 8-19l0-46 100 0c13 0 24-5 33-14 9-9 13-19 13-32z"/>
<glyph unicode="&#126;" d="M485 238c0-5-2-10-6-13-3-4-8-6-13-6l-64 0c0-32-6-60-19-82l60-60c3-4 5-8 5-13 0-5-2-9-5-13-4-3-8-5-13-5-5 0-10 2-13 5l-57 56c-1-1-2-2-4-3-2-2-6-5-12-8-6-4-12-8-19-11-6-3-14-6-23-8-9-3-19-4-28-4l0 256-36 0 0-256c-10 0-20 1-29 4-10 3-18 6-25 9-7 4-13 8-19 12-6 3-10 6-12 9l-5 4-52-59c-4-4-8-6-14-6-4 0-8 1-12 4-4 4-6 8-6 13 0 5 1 9 5 13l57 65c-11 22-16 48-16 78l-64 0c-5 0-10 2-13 6-4 3-6 8-6 13 0 5 2 9 6 13 3 3 8 5 13 5l64 0 0 84-50 49c-3 4-5 8-5 13 0 5 2 10 5 13 4 4 8 6 13 6 5 0 9-2 13-6l49-49 242 0 49 49c4 4 8 6 13 6 5 0 9-2 13-6 3-3 5-8 5-13 0-5-2-9-5-13l-50-49 0-84 64 0c5 0 10-2 13-5 4-4 6-8 6-13z m-138 164l-182 0c0 26 8 47 26 65 18 18 40 27 65 27 25 0 47-9 65-27 18-18 26-39 26-65z"/>
<glyph unicode="&#92;" d="M165 137l0-18c0-3-1-5-3-7-2-1-4-2-7-2l-18 0c-2 0-4 1-6 2-2 2-3 4-3 7l0 18c0 3 1 5 3 7 2 1 4 2 6 2l18 0c3 0 5-1 7-2 2-2 3-4 3-7z m0 73l0-18c0-2-1-5-3-6-2-2-4-3-7-3l-18 0c-2 0-4 1-6 3-2 1-3 4-3 6l0 18c0 3 1 5 3 7 2 2 4 2 6 2l18 0c3 0 5 0 7-2 2-2 3-4 3-7z m73 0l0-18c0-2-1-5-3-6-2-2-4-3-6-3l-19 0c-2 0-4 1-6 3-2 1-3 4-3 6l0 18c0 3 1 5 3 7 2 2 4 2 6 2l19 0c2 0 4 0 6-2 2-2 3-4 3-7z m-73 73l0-18c0-2-1-4-3-6-2-2-4-3-7-3l-18 0c-2 0-4 1-6 3-2 2-3 4-3 6l0 18c0 3 1 5 3 7 2 2 4 3 6 3l18 0c3 0 5-1 7-3 2-2 3-4 3-7z m219-146l0-18c0-3-1-5-3-7-2-1-4-2-6-2l-18 0c-3 0-5 1-7 2-2 2-3 4-3 7l0 18c0 3 1 5 3 7 2 1 4 2 7 2l18 0c2 0 4-1 6-2 2-2 3-4 3-7z m-73 73l0-18c0-2-1-5-3-6-2-2-4-3-6-3l-19 0c-2 0-4 1-6 3-2 1-3 4-3 6l0 18c0 3 1 5 3 7 2 2 4 2 6 2l19 0c2 0 4 0 6-2 2-2 3-4 3-7z m-73 73l0-18c0-2-1-4-3-6-2-2-4-3-6-3l-19 0c-2 0-4 1-6 3-2 2-3 4-3 6l0 18c0 3 1 5 3 7 2 2 4 3 6 3l19 0c2 0 4-1 6-3 2-2 3-4 3-7z m-73 74l0-19c0-2-1-4-3-6-2-2-4-3-7-3l-18 0c-2 0-4 1-6 3-2 2-3 4-3 6l0 19c0 2 1 4 3 6 2 2 4 3 6 3l18 0c3 0 5-1 7-3 2-2 3-4 3-6z m219-147l0-18c0-2-1-5-3-6-2-2-4-3-6-3l-18 0c-3 0-5 1-7 3-2 1-3 4-3 6l0 18c0 3 1 5 3 7 2 2 4 2 7 2l18 0c2 0 4 0 6-2 2-2 3-4 3-7z m-73 73l0-18c0-2-1-4-3-6-2-2-4-3-6-3l-19 0c-2 0-4 1-6 3-2 2-3 4-3 6l0 18c0 3 1 5 3 7 2 2 4 3 6 3l19 0c2 0 4-1 6-3 2-2 3-4 3-7z m-73 74l0-19c0-2-1-4-3-6-2-2-4-3-6-3l-19 0c-2 0-4 1-6 3-2 2-3 4-3 6l0 19c0 2 1 4 3 6 2 2 4 3 6 3l19 0c2 0 4-1 6-3 2-2 3-4 3-6z m-73 73l0-19c0-2-1-4-3-6-2-2-4-3-7-3l-18 0c-2 0-4 1-6 3-2 2-3 4-3 6l0 19c0 2 1 4 3 6 2 2 4 3 6 3l18 0c3 0 5-1 7-3 2-2 3-4 3-6z m219-147l0-18c0-2-1-4-3-6-2-2-4-3-6-3l-18 0c-3 0-5 1-7 3-2 2-3 4-3 6l0 18c0 3 1 5 3 7 2 2 4 3 7 3l18 0c2 0 4-1 6-3 2-2 3-4 3-7z m-73 74l0-19c0-2-1-4-3-6-2-2-4-3-6-3l-19 0c-2 0-4 1-6 3-2 2-3 4-3 6l0 19c0 2 1 4 3 6 2 2 4 3 6 3l19 0c2 0 4-1 6-3 2-2 3-4 3-6z m-73 73l0-19c0-2-1-4-3-6-2-2-4-3-6-3l-19 0c-2 0-4 1-6 3-2 2-3 4-3 6l0 19c0 2 1 4 3 6 2 2 4 3 6 3l19 0c2 0 4-1 6-3 2-2 3-4 3-6z m146-73l0-19c0-2-1-4-3-6-2-2-4-3-6-3l-18 0c-3 0-5 1-7 3-2 2-3 4-3 6l0 19c0 2 1 4 3 6 2 2 4 3 7 3l18 0c2 0 4-1 6-3 2-2 3-4 3-6z m-73 73l0-19c0-2-1-4-3-6-2-2-4-3-6-3l-19 0c-2 0-4 1-6 3-2 2-3 4-3 6l0 19c0 2 1 4 3 6 2 2 4 3 6 3l19 0c2 0 4-1 6-3 2-2 3-4 3-6z m73 0l0-19c0-2-1-4-3-6-2-2-4-3-6-3l-18 0c-3 0-5 1-7 3-2 2-3 4-3 6l0 19c0 2 1 4 3 6 2 2 4 3 7 3l18 0c2 0 4-1 6-3 2-2 3-4 3-6z m-73-393l110 0 0 438-330 0 0-438 110 0 0 64c0 2 1 4 3 6 2 2 4 3 6 3l92 0c2 0 4-1 6-3 2-2 3-4 3-6z m146 457l0-476c0-5-2-9-5-13-4-3-8-5-13-5l-366 0c-5 0-9 2-13 5-3 4-5 8-5 13l0 476c0 5 2 9 5 13 4 3 8 5 13 5l366 0c5 0 9-2 13-5 3-4 5-8 5-13z"/>
<glyph unicode="&#57344;" d="M475 329c11 0 19-3 26-11 7-7 11-15 11-25 0-11-4-19-11-26-7-7-15-11-26-11l0-110c0-10-3-18-10-25-8-8-16-11-26-11-80 66-157 102-232 108-11-3-20-10-26-19-6-9-9-18-9-28 0-10 4-19 11-27-3-6-6-12-6-18-1-7 0-12 2-17 1-5 4-10 9-16 5-5 9-10 14-14 4-4 10-9 17-14-5-11-16-19-31-24-16-5-32-6-49-3-16 2-29 7-37 15-2 5-4 13-9 25-4 13-7 22-9 27-2 6-4 15-6 26-3 11-4 21-5 29 0 8 0 17 1 28 1 11 3 21 7 31l-35 0c-13 0-24 5-33 14-9 9-13 20-13 32l0 55c0 13 4 23 13 32 9 9 20 14 33 14l137 0c83 0 168 36 256 109 10 0 18-3 26-10 7-8 10-16 10-26z m-36-172l0 272c-75-57-148-90-220-98l0-77c72-8 145-40 220-97z"/>
<glyph unicode="&#57345;" d="M329 256c0-20-7-37-21-52-15-14-32-21-52-21-20 0-37 7-52 21-14 15-21 32-21 52 0 20 7 37 21 52 15 14 32 21 52 21 20 0 37-7 52-21 14-15 21-32 21-52z m37 0c0 30-11 56-32 78-22 21-48 32-78 32-30 0-56-11-78-32-21-22-32-48-32-78 0-30 11-56 32-78 22-21 48-32 78-32 30 0 56 11 78 32 21 22 32 48 32 78z m36 0c0-40-14-75-43-103-28-29-63-43-103-43-40 0-75 14-103 43-29 28-43 63-43 103 0 40 14 75 43 103 28 29 63 43 103 43 40 0 75-14 103-43 29-28 43-63 43-103z m37 0c0 25-5 48-15 71-9 23-22 42-39 58-16 17-35 30-58 39-23 10-46 15-71 15-25 0-48-5-71-15-23-9-42-22-58-39-17-16-30-35-39-58-10-23-15-46-15-71 0-25 5-48 15-71 9-23 22-42 39-58 16-17 35-30 58-39 23-10 46-15 71-15 25 0 48 5 71 15 23 9 42 22 58 39 17 16 30 35 39 58 10 23 15 46 15 71z m36 0c0-40-9-77-29-110-20-34-46-60-80-80-33-20-70-29-110-29-40 0-77 9-110 29-34 20-60 46-80 80-20 33-29 70-29 110 0 40 9 77 29 110 20 34 46 60 80 80 33 20 70 29 110 29 40 0 77-9 110-29 34-20 60-46 80-80 20-33 29-70 29-110z"/>
<glyph unicode="&#57346;" d="M55 37l82 0 0 82-82 0z m100 0l92 0 0 82-92 0z m-100 100l82 0 0 92-82 0z m100 0l92 0 0 92-92 0z m-100 110l82 0 0 82-82 0z m210-210l92 0 0 82-92 0z m-110 210l92 0 0 82-92 0z m220-210l82 0 0 82-82 0z m-110 100l92 0 0 92-92 0z m-100 247l0 82c0 3-1 5-3 7-2 2-4 2-7 2l-18 0c-2 0-4 0-6-2-2-2-3-4-3-7l0-82c0-2 1-5 3-6 2-2 4-3 6-3l18 0c3 0 5 1 7 3 2 1 3 4 3 6z m210-247l82 0 0 92-82 0z m-110 110l92 0 0 82-92 0z m110 0l82 0 0 82-82 0z m9 137l0 82c0 3-1 5-3 7-2 2-4 2-6 2l-18 0c-3 0-5 0-7-2-2-2-3-4-3-7l0-82c0-2 1-5 3-6 2-2 4-3 7-3l18 0c2 0 4 1 6 3 2 1 3 4 3 6z m110 18l0-365c0-10-4-19-11-26-7-7-16-11-26-11l-402 0c-10 0-19 4-26 11-7 7-11 16-11 26l0 365c0 10 4 19 11 26 7 7 16 11 26 11l36 0 0 27c0 13 5 24 14 33 9 9 20 13 32 13l18 0c13 0 24-4 33-13 9-9 13-20 13-33l0-27 110 0 0 27c0 13 4 24 13 33 9 9 20 13 33 13l18 0c12 0 23-4 32-13 9-9 14-20 14-33l0-27 36 0c10 0 19-4 26-11 7-7 11-16 11-26z"/>
<glyph unicode="&#57347;" d="M55 37l402 0 0 292-402 0z m110 347l0 82c0 3-1 5-3 7-2 2-4 2-7 2l-18 0c-3 0-5 0-6-2-2-2-3-4-3-7l0-82c0-3 1-5 3-7 1-1 3-2 6-2l18 0c3 0 5 1 7 2 2 2 3 4 3 7z m219 0l0 82c0 3-1 5-3 7-1 2-3 2-6 2l-18 0c-3 0-5 0-7-2-2-2-3-4-3-7l0-82c0-3 1-5 3-7 2-1 4-2 7-2l18 0c3 0 5 1 6 2 2 2 3 4 3 7z m110 18l0-365c0-10-4-19-11-26-7-7-16-11-26-11l-402 0c-10 0-19 4-26 11-7 7-11 16-11 26l0 365c0 10 4 19 11 26 7 7 16 11 26 11l36 0 0 27c0 13 5 24 14 33 9 9 20 13 32 13l18 0c13 0 24-4 33-13 9-9 13-20 13-33l0-27 110 0 0 27c0 13 4 24 13 33 9 9 20 13 33 13l18 0c12 0 23-4 32-13 9-9 14-20 14-33l0-27 36 0c10 0 19-4 26-11 7-7 11-16 11-26z"/>
<glyph unicode="&#57348;" d="M457 158c0-5-1-12-3-20-2-9-4-15-6-20-4-10-15-20-35-30-17-10-35-15-53-15-5 0-10 0-15 1-5 1-10 2-16 4-6 1-11 3-14 4-3 1-8 3-16 6-7 3-12 4-14 5-18 7-35 14-50 24-24 15-49 35-75 61-26 26-47 51-62 76-9 14-17 31-23 50-1 1-3 6-6 14-2 7-4 13-5 16-1 3-3 7-5 13-1 6-2 12-3 17-1 4-1 9-1 15 0 17 5 35 14 53 11 19 21 31 31 35 4 2 11 4 19 6 9 1 15 2 20 2 3 0 5 0 6 0 4-2 9-9 16-22 2-4 5-9 8-16 4-6 7-12 10-18 3-5 6-10 9-15 1-1 2-3 5-7 3-4 5-8 6-10 1-3 2-6 2-8 0-4-3-9-8-15-5-5-11-11-18-15-6-5-12-10-17-16-6-5-9-9-9-13 0-1 1-4 2-6 1-3 2-5 2-6 1-1 2-4 4-7 2-3 3-5 4-5 14-26 31-49 49-67 19-19 41-36 67-50 1 0 3-1 6-3 3-2 5-4 7-4 1-1 3-2 6-3 2-1 4-1 6-1 3 0 8 2 13 8 5 5 11 11 15 18 5 6 10 12 16 17 6 6 10 8 14 8 3 0 6 0 8-2 3-1 7-3 11-6 4-2 6-4 7-5 4-3 10-6 15-9 5-3 11-6 18-10 7-3 12-6 16-8 13-7 20-12 21-15 1-2 1-4 1-6z"/>
<glyph unicode="&#57349;" d="M402 171c0 2 0 4 0 5-1 1-5 4-11 8-7 4-15 9-26 14l-15 9c-1 0-2 1-5 3-3 2-5 4-7 5-2 1-4 1-6 1-4 0-8-3-14-9-5-6-11-13-16-19-5-6-10-9-13-9-1 0-2 0-4 1-2 0-4 1-5 1-1 1-2 2-5 3-2 1-3 2-4 3-18 10-35 22-48 36-14 13-26 30-36 48-1 1-2 2-3 4-1 3-2 4-3 5 0 1-1 3-1 5-1 2-1 3-1 4 0 3 2 6 5 10 4 4 9 8 13 11 5 3 9 7 13 11 4 4 6 8 6 11 0 2 0 4-1 6-1 2-3 4-5 7-2 3-3 4-3 5-1 1-2 4-5 8-2 5-4 9-7 13-2 5-5 9-7 14-3 5-5 9-8 12-2 3-3 4-4 5-1 0-3 0-5 0-9 0-19-2-29-6-8-4-16-13-23-27-6-14-9-26-9-37 0-3 0-7 0-10 1-3 1-6 2-9 0-2 1-5 2-9 2-4 3-7 3-9 1-1 2-4 4-9 2-5 3-7 3-9 11-31 32-61 62-91 30-30 60-51 91-62 2 0 4-1 9-3 5-2 8-3 9-4 2 0 5-1 9-3 4-1 7-2 9-2 3-1 6-1 9-2 3 0 7 0 10 0 11 0 23 3 37 9 14 7 23 15 27 23 4 10 6 20 6 29z m73 222l0-274c0-23-8-42-24-58-16-16-35-24-58-24l-274 0c-23 0-42 8-58 24-16 16-24 35-24 58l0 274c0 23 8 42 24 58 16 16 35 24 58 24l274 0c23 0 42-8 58-24 16-16 24-35 24-58z"/>
<glyph unicode="&#57350;" d="M256 316c21 0 39-8 54-23 15-15 23-33 23-54 0-21-8-39-23-54-15-15-33-23-54-23-21 0-39 8-54 23-15 15-23 33-23 54 0 21 8 39 23 54 15 15 33 23 54 23z m188 111c19 0 35-7 48-20 13-14 20-30 20-49l0-239c0-18-7-34-20-48-13-13-29-20-48-20l-376 0c-19 0-35 7-48 20-13 14-20 30-20 48l0 239c0 19 7 35 20 49 13 13 29 20 48 20l60 0 14 36c3 9 9 16 18 22 9 7 18 10 28 10l136 0c10 0 19-3 28-10 9-6 15-13 18-22l14-36z m-188-308c33 0 61 12 84 36 24 23 35 51 35 84 0 33-11 61-35 84-23 24-51 35-84 35-33 0-61-11-84-35-24-23-35-51-35-84 0-33 11-61 35-84 23-24 51-36 84-36z"/>
<glyph unicode="&#57351;" d="M265 274c0 3-1 5-2 7-2 2-4 2-7 2-13 0-23-4-32-13-9-9-14-20-14-32 0-3 1-5 3-7 2-2 4-2 6-2 3 0 5 0 7 2 2 2 3 4 3 7 0 7 2 14 8 19 5 5 11 8 19 8 3 0 5 1 7 3 1 1 2 4 2 6z m64-37c0-20-7-37-21-52-15-14-32-21-52-21-20 0-37 7-52 21-14 15-21 32-21 52 0 20 7 38 21 52 15 14 32 21 52 21 20 0 37-7 52-21 14-14 21-32 21-52z m-292-164l438 0 0 37-438 0z m329 164c0 30-11 56-32 78-22 21-48 32-78 32-30 0-56-11-78-32-21-22-32-48-32-78 0-30 11-56 32-77 22-22 48-33 78-33 30 0 56 11 78 33 21 21 32 47 32 77z m-293 184l110 0 0 36-110 0z m-36-55l438 0 0 73-236 0-18-37-184 0z m475 73l0-366c0-10-4-19-11-26-7-7-15-10-26-10l-438 0c-11 0-19 3-26 10-7 7-11 16-11 26l0 366c0 10 4 19 11 26 7 7 15 10 26 10l438 0c11 0 19-3 26-10 7-7 11-16 11-26z"/>
<glyph unicode="&#57352;" d="M402 201c0-5-2-9-5-13l-128-128c-4-3-8-5-13-5-5 0-9 2-13 5l-128 128c-3 4-5 8-5 13 0 5 2 9 5 13 4 4 8 5 13 5l256 0c5 0 9-1 13-5 3-4 5-8 5-13z"/>
<glyph unicode="&#57353;" d="M402 311c0-5-2-9-5-13l-128-128c-4-4-8-5-13-5-5 0-9 1-13 5l-128 128c-3 4-5 8-5 13 0 5 2 9 5 13 4 3 8 5 13 5l256 0c5 0 9-2 13-5 3-4 5-8 5-13z"/>
<glyph unicode="&#57354;" d="M421 246l0-91c0-22-8-42-25-58-16-16-35-24-58-24l-237 0c-23 0-42 8-59 24-16 16-24 36-24 58l0 238c0 23 8 42 24 58 17 16 36 24 59 24l237 0c12 0 23-2 34-7 3-1 4-3 5-6 0-4 0-6-3-9l-14-14c-2-1-4-2-6-2-1 0-2 0-3 0-4 1-9 2-13 2l-237 0c-13 0-24-5-33-14-9-9-13-19-13-32l0-238c0-12 4-23 13-32 9-9 20-13 33-13l237 0c13 0 24 4 33 13 9 9 13 20 13 32l0 73c0 2 1 5 3 6l18 19c2 1 4 2 6 2 2 0 3 0 4 0 4-2 6-5 6-9z m66 140l-233-233c-5-4-10-6-16-6-7 0-12 2-17 6l-122 123c-5 5-7 10-7 17 0 6 2 11 7 16l31 31c5 5 10 7 16 7 7 0 12-2 17-7l75-75 185 185c4 5 10 7 16 7 6 0 12-2 16-7l32-31c4-5 6-10 6-17 0-6-2-11-6-16z"/>
<glyph unicode="&#57355;" d="M477 350c0-7-2-14-8-19l-206-207-39-39c-6-5-12-8-20-8-7 0-14 3-19 8l-142 142c-6 6-8 12-8 20 0 7 2 14 8 19l38 39c6 5 12 8 20 8 7 0 14-3 19-8l84-84 188 188c5 5 12 8 19 8 8 0 14-3 20-8l38-39c6-6 8-12 8-20z"/>
<glyph unicode="&#57356;" d="M201 402c-29 0-56-5-82-15-25-9-45-23-60-40-15-17-22-35-22-54 0-16 5-31 15-46 10-14 24-27 42-37l28-16-10-24c6 4 12 7 18 11l12 9 15-3c15-3 30-4 44-4 29 0 57 5 82 15 25 10 45 23 60 40 15 17 23 35 23 55 0 19-8 37-23 54-15 17-35 31-60 40-25 10-53 15-82 15z m0 37c37 0 70-7 101-20 31-13 56-31 73-53 18-22 27-47 27-73 0-27-9-51-27-74-17-22-42-40-73-53-31-13-64-20-101-20-16 0-33 2-50 5-24-17-50-29-80-37-6-1-15-3-24-4l-1 0c-2 0-4 0-6 2-2 2-3 4-3 6 0 1 0 1 0 2 0 1 0 1 0 2 0 0 0 1 0 1l1 2c0 0 0 0 1 1 1 1 1 2 1 2 0 0 1 0 1 1 1 1 2 2 2 2 1 1 3 3 6 7 4 3 6 6 8 8 1 2 3 5 6 8 3 4 5 8 7 11 2 4 4 8 6 13-24 14-42 31-56 51-13 20-20 41-20 64 0 26 9 51 27 73 18 22 42 40 73 53 31 13 65 20 101 20z m235-334c2-5 4-9 6-13 2-4 4-7 7-11 3-3 5-6 6-8 2-2 4-5 8-8 3-4 5-6 6-8 1 0 1 0 2-1 0-1 1-1 1-1 0-1 1-1 1-2 0 0 1-1 1-1l1-2c0 0 0 0 0-1 1-2 1-2 0-2 0 0 0-1 0-2 0-3-2-5-4-6-1-2-4-3-6-2-9 1-18 2-24 4-30 8-56 20-80 37-17-3-34-5-50-5-52 0-97 13-135 38 11-1 19-1 25-1 31 0 60 4 88 13 29 8 54 20 76 36 24 18 42 38 55 61 12 23 19 47 19 73 0 14-2 29-7 43 25-14 44-30 59-51 14-20 21-42 21-66 0-22-7-44-20-64-14-20-32-36-56-50z"/>
<glyph unicode="&#57357;" d="M256 402c-39 0-75-6-109-20-34-13-61-31-81-53-19-23-29-47-29-73 0-21 6-42 20-61 14-19 33-36 58-50l24-14-7-28c-5-17-12-34-20-49 29 12 55 28 78 49l13 11 16-2c13-2 25-2 37-2 39 0 75 6 109 20 34 13 61 31 81 53 19 23 29 47 29 73 0 26-10 50-29 73-20 22-47 40-81 53-34 14-70 20-109 20z m256-146c0-33-11-64-34-92-23-28-54-50-93-66-40-17-83-25-129-25-13 0-27 1-41 2-38-33-82-56-132-69-9-2-20-4-32-6l-2 0c-3 0-5 1-8 3-2 2-3 5-4 8l0 0c-1 1-1 2 0 4 0 1 0 2 0 2 0 1 1 2 2 3l1 3c0 0 1 1 2 2 2 2 2 3 3 3 1 1 4 5 8 10 5 5 8 8 10 10 2 3 5 6 9 12 4 5 7 10 9 14 3 5 5 10 8 17 3 7 5 14 8 22-30 17-54 38-71 63-17 25-26 51-26 80 0 33 11 64 34 92 23 28 54 50 93 66 40 17 83 25 129 25 46 0 89-8 129-25 39-16 70-38 93-66 23-28 34-59 34-92z"/>
<glyph unicode="&#57358;" d="M430 256l39-39c6-5 8-12 6-20-2-7-7-12-15-14l-54-14 15-53c3-8 1-14-5-20-6-6-12-8-20-5l-53 15-14-54c-2-8-7-13-14-15-3 0-5 0-6 0-6 0-11 2-14 6l-39 39-39-39c-5-6-12-8-20-6-7 2-12 7-14 15l-14 54-53-15c-8-3-14-1-20 5-6 6-8 12-5 20l15 53-54 14c-8 2-13 7-15 14-2 8 0 15 6 20l39 39-39 39c-6 5-8 12-6 20 2 7 7 12 15 14l54 14-15 53c-3 8-1 14 5 20 6 6 12 8 20 5l53-15 14 54c2 8 7 13 14 15 8 2 15 0 20-6l39-40 39 40c5 6 12 8 20 6 7-2 12-7 14-15l14-54 53 15c8 3 14 1 20-5 6-6 8-12 5-20l-15-53 54-14c8-2 13-7 15-14 2-8 0-15-6-20z"/>
<glyph unicode="&#57359;" d="M402 165c0-5-2-10-5-13-4-4-8-6-13-6l-256 0c-5 0-9 2-13 6-3 3-5 8-5 13 0 5 2 9 5 12l128 128c4 4 8 6 13 6 5 0 9-2 13-6l128-128c3-3 5-7 5-12z"/>
<glyph unicode="&#57360;" d="M402 201c0-5-2-9-5-13l-128-128c-4-3-8-5-13-5-5 0-9 2-13 5l-128 128c-3 4-5 8-5 13 0 5 2 9 5 13 4 4 8 5 13 5l256 0c5 0 9-1 13-5 3-4 5-8 5-13z m0 110c0-5-2-9-5-13-4-4-8-5-13-5l-256 0c-5 0-9 1-13 5-3 4-5 8-5 13 0 5 2 9 5 13l128 128c4 3 8 5 13 5 5 0 9-2 13-5l128-128c3-4 5-8 5-13z"/>
<glyph unicode="&#57361;" d="M402 311c0-5-2-9-5-13-4-4-8-5-13-5l-256 0c-5 0-9 1-13 5-3 4-5 8-5 13 0 5 2 9 5 13l128 128c4 3 8 5 13 5 5 0 9-2 13-5l128-128c3-4 5-8 5-13z"/>
<glyph unicode="&#57362;" d="M364 193c-4-7-9-10-17-10l-182 0c-8 0-13 3-17 10-3 7-3 13 2 19l91 128c4 5 9 7 15 7 6 0 11-2 15-7l91-128c5-6 5-12 2-19z m38-74l0 274c0 3-1 5-2 7-2 1-4 2-7 2l-274 0c-3 0-5-1-7-2-1-2-2-4-2-7l0-274c0-3 1-5 2-7 2-1 4-2 7-2l274 0c3 0 5 1 7 2 1 2 2 4 2 7z m73 274l0-274c0-23-8-42-24-58-16-16-35-24-58-24l-274 0c-23 0-42 8-58 24-16 16-24 35-24 58l0 274c0 23 8 42 24 58 16 16 35 24 58 24l274 0c23 0 42-8 58-24 16-16 24-35 24-58z"/>
<glyph unicode="&#57363;" d="M347 256c0-6-2-11-7-15l-128-91c-6-5-12-5-19-2-7 4-10 9-10 17l0 182c0 8 3 13 10 17 7 3 13 3 19-2l128-91c5-4 7-9 7-15z m55-137l0 274c0 3-1 5-2 7-2 1-4 2-7 2l-274 0c-3 0-5-1-7-2-1-2-2-4-2-7l0-274c0-3 1-5 2-7 2-1 4-2 7-2l274 0c3 0 5 1 7 2 1 2 2 4 2 7z m73 274l0-274c0-23-8-42-24-58-16-16-35-24-58-24l-274 0c-23 0-42 8-58 24-16 16-24 35-24 58l0 274c0 23 8 42 24 58 16 16 35 24 58 24l274 0c23 0 42-8 58-24 16-16 24-35 24-58z"/>
<glyph unicode="&#57364;" d="M364 319c3-7 3-13-2-19l-91-128c-4-5-9-7-15-7-6 0-11 2-15 7l-91 128c-5 6-5 12-2 19 4 7 9 10 17 10l182 0c8 0 13-3 17-10z m38-200l0 274c0 3-1 5-2 7-2 1-4 2-7 2l-274 0c-3 0-5-1-7-2-1-2-2-4-2-7l0-274c0-3 1-5 2-7 2-1 4-2 7-2l274 0c3 0 5 1 7 2 1 2 2 4 2 7z m73 274l0-274c0-23-8-42-24-58-16-16-35-24-58-24l-274 0c-23 0-42 8-58 24-16 16-24 35-24 58l0 274c0 23 8 42 24 58 16 16 35 24 58 24l274 0c23 0 42-8 58-24 16-16 24-35 24-58z"/>
<glyph unicode="&#57365;" d="M329 256c0-5-2-9-5-13l-128-128c-4-3-8-5-13-5-5 0-9 2-13 5-4 4-5 8-5 13l0 256c0 5 1 9 5 13 4 3 8 5 13 5 5 0 9-2 13-5l128-128c3-4 5-8 5-13z"/>
<glyph unicode="&#57366;" d="M347 384l0-256c0-5-1-9-5-13-4-3-8-5-13-5-5 0-9 2-13 5l-128 128c-3 4-5 8-5 13 0 5 2 9 5 13l128 128c4 3 8 5 13 5 5 0 9-2 13-5 4-4 5-8 5-13z"/>
<glyph unicode="&#57367;" d="M403 302c0 6-1 10-5 13l-26 26c-3 4-8 6-13 6-5 0-9-2-12-6l-117-116-65 64c-3 4-7 6-12 6-5 0-10-2-13-6l-26-25c-4-4-5-8-5-13 0-6 1-10 5-13l103-104c4-3 8-5 13-5 5 0 10 2 13 5l155 155c4 4 5 8 5 13z m72-46c0-40-9-77-29-110-20-34-46-60-80-80-33-20-70-29-110-29-40 0-77 9-110 29-34 20-60 46-80 80-20 33-29 70-29 110 0 40 9 77 29 110 20 34 46 60 80 80 33 20 70 29 110 29 40 0 77-9 110-29 34-20 60-46 80-80 20-33 29-70 29-110z"/>
<glyph unicode="&#57368;" d="M371 280l-120-121c-4-3-8-5-13-5-5 0-10 2-13 5l-84 84c-4 4-6 8-6 13 0 5 2 9 6 13l29 29c4 4 8 5 13 5 5 0 9-1 13-5l42-42 78 79c4 3 8 5 13 5 5 0 9-2 13-5l29-30c4-3 6-7 6-12 0-5-2-10-6-13z m40-24c0 28-7 54-20 78-14 24-33 43-57 57-24 13-50 20-78 20-28 0-54-7-78-20-24-14-43-33-57-57-13-24-20-50-20-78 0-28 7-54 20-78 14-24 33-43 57-57 24-13 50-20 78-20 28 0 54 7 78 20 24 14 43 33 57 57 13 24 20 50 20 78z m64 0c0-40-9-77-29-110-20-34-46-60-80-80-33-20-70-29-110-29-40 0-77 9-110 29-34 20-60 46-80 80-20 33-29 70-29 110 0 40 9 77 29 110 20 34 46 60 80 80 33 20 70 29 110 29 40 0 77-9 110-29 34-20 60-46 80-80 20-33 29-70 29-110z"/>
<glyph unicode="&#57369;" d="M232 141l176 175c3 4 5 8 5 13 0 5-2 9-5 13l-29 29c-4 4-8 6-13 6-5 0-10-2-13-6l-134-133-60 60c-3 4-8 5-13 5-5 0-9-1-13-5l-29-29c-3-4-5-8-5-13 0-5 2-9 5-13l103-102c3-4 7-6 12-6 5 0 10 2 13 6z m243 252l0-274c0-23-8-42-24-58-16-16-35-24-58-24l-274 0c-23 0-42 8-58 24-16 16-24 35-24 58l0 274c0 23 8 42 24 58 16 16 35 24 58 24l274 0c23 0 42-8 58-24 16-16 24-35 24-58z"/>
<glyph unicode="&#57370;" d="M479 311c0-10-4-19-11-26l-186-186c-7-7-16-11-26-11-10 0-19 4-26 11l-186 186c-7 7-11 16-11 26 0 10 4 19 11 26l21 21c8 7 17 11 26 11 11 0 19-4 26-11l139-139 139 139c7 7 15 11 26 11 9 0 18-4 26-11l21-21c7-8 11-16 11-26z"/>
<glyph unicode="&#57371;" d="M269 141l130 130c3 3 5 7 5 12 0 5-2 10-5 13l-30 29c-3 4-7 6-12 6-5 0-10-2-13-6l-88-87-88 87c-3 4-8 6-13 6-5 0-9-2-12-6l-30-29c-3-3-5-8-5-13 0-5 2-9 5-12l130-130c4-4 8-6 13-6 5 0 9 2 13 6z m206 115c0-40-9-77-29-110-20-34-46-60-80-80-33-20-70-29-110-29-40 0-77 9-110 29-34 20-60 46-80 80-20 33-29 70-29 110 0 40 9 77 29 110 20 34 46 60 80 80 33 20 70 29 110 29 40 0 77-9 110-29 34-20 60-46 80-80 20-33 29-70 29-110z"/>
<glyph unicode="&#57372;" d="M303 63l-186 186c-7 7-10 15-10 25 0 11 3 19 10 26l186 186c7 7 16 11 26 11 10 0 19-4 26-11l22-21c7-7 10-16 10-26 0-10-3-19-10-26l-139-139 139-138c7-8 10-16 10-26 0-10-3-19-10-26l-22-21c-7-7-16-11-26-11-10 0-19 4-26 11z"/>
<glyph unicode="&#57373;" d="M405 274c0-10-3-18-10-26l-186-186c-7-7-16-10-26-10-10 0-19 3-26 10l-22 22c-7 7-10 16-10 26 0 10 3 18 10 25l139 139-139 139c-7 7-10 16-10 26 0 10 3 19 10 26l22 21c7 7 16 11 26 11 10 0 19-4 26-11l186-186c7-7 10-16 10-26z"/>
<glyph unicode="&#57374;" d="M479 165c0-11-4-19-11-26l-21-22c-8-7-16-10-26-10-11 0-19 3-26 10l-139 139-139-139c-7-7-15-10-26-10-10 0-18 3-25 10l-22 22c-7 7-11 15-11 26 0 10 4 18 11 26l186 186c7 7 16 10 26 10 10 0 19-3 26-10l186-186c7-8 11-16 11-26z"/>
<glyph unicode="&#57375;" d="M369 187l30 29c3 3 5 8 5 13 0 5-2 9-5 12l-130 130c-4 4-8 6-13 6-5 0-9-2-13-6l-130-130c-3-3-5-7-5-12 0-5 2-10 5-13l30-29c3-4 7-6 12-6 5 0 10 2 13 6l88 87 88-87c3-4 8-6 13-6 5 0 9 2 12 6z m106 69c0-40-9-77-29-110-20-34-46-60-80-80-33-20-70-29-110-29-40 0-77 9-110 29-34 20-60 46-80 80-20 33-29 70-29 110 0 40 9 77 29 110 20 34 46 60 80 80 33 20 70 29 110 29 40 0 77-9 110-29 34-20 60-46 80-80 20-33 29-70 29-110z"/>
<glyph unicode="&#57376;" d="M475 256c0-40-9-77-29-110-20-34-46-60-80-80-33-20-70-29-110-29-40 0-77 9-110 29-34 20-60 46-80 80-20 33-29 70-29 110 0 40 9 77 29 110 20 34 46 60 80 80 33 20 70 29 110 29 40 0 77-9 110-29 34-20 60-46 80-80 20-33 29-70 29-110z"/>
<glyph unicode="&#57377;" d="M256 411c-28 0-54-7-78-20-24-14-43-33-57-57-13-24-20-50-20-78 0-28 7-54 20-78 14-24 33-43 57-57 24-13 50-20 78-20 28 0 54 7 78 20 24 14 43 33 57 57 13 24 20 50 20 78 0 28-7 54-20 78-14 24-33 43-57 57-24 13-50 20-78 20z m219-155c0-40-9-77-29-110-20-34-46-60-80-80-33-20-70-29-110-29-40 0-77 9-110 29-34 20-60 46-80 80-20 33-29 70-29 110 0 40 9 77 29 110 20 34 46 60 80 80 33 20 70 29 110 29 40 0 77-9 110-29 34-20 60-46 80-80 20-33 29-70 29-110z"/>
<glyph unicode="&#57378;" d="M219 37l256 0 0 182-118 0c-8 0-15 3-20 8-5 6-8 12-8 20l0 119-110 0z m74 411l0 18c0 3-1 5-3 7-2 2-4 2-7 2l-201 0c-2 0-4 0-6-2-2-2-3-4-3-7l0-18c0-2 1-5 3-6 2-2 4-3 6-3l201 0c3 0 5 1 7 3 2 1 3 4 3 6z m73-192l85 0-85 85z m146-37l0-192c0-7-3-14-8-19-5-5-12-8-19-8l-275 0c-7 0-14 3-19 8-5 5-8 12-8 19l0 46-156 0c-7 0-14 3-19 8-5 5-8 12-8 20l0 384c0 7 3 14 8 19 5 5 12 8 19 8l311 0c8 0 14-3 20-8 5-5 8-12 8-19l0-94c4-3 7-5 10-8l117-117c5-5 9-12 13-21 4-10 6-18 6-26z"/>
<glyph unicode="&#57379;" d="M293 357l0-128c0-3-1-5-3-7-2-2-4-3-7-3l-91 0c-3 0-5 1-7 3-1 2-2 4-2 7l0 18c0 3 1 5 2 6 2 2 4 3 7 3l64 0 0 101c0 2 1 4 3 6 1 2 3 3 6 3l18 0c3 0 5-1 7-3 2-2 3-4 3-6z m118-101c0 28-7 54-20 78-14 24-33 43-57 57-24 13-50 20-78 20-28 0-54-7-78-20-24-14-43-33-57-57-13-24-20-50-20-78 0-28 7-54 20-78 14-24 33-43 57-57 24-13 50-20 78-20 28 0 54 7 78 20 24 14 43 33 57 57 13 24 20 50 20 78z m64 0c0-40-9-77-29-110-20-34-46-60-80-80-33-20-70-29-110-29-40 0-77 9-110 29-34 20-60 46-80 80-20 33-29 70-29 110 0 40 9 77 29 110 20 34 46 60 80 80 33 20 70 29 110 29 40 0 77-9 110-29 34-20 60-46 80-80 20-33 29-70 29-110z"/>
<glyph unicode="&#57380;" d="M379 219l-32 0c-5 0-9 2-12 6-4 3-6 8-6 13l0 36c0 5 2 10 6 13 3 4 7 6 12 6l32 0c-7 20-17 38-33 53-15 16-33 26-53 33l0-32c0-5-2-9-6-12-3-4-8-6-13-6l-36 0c-5 0-10 2-13 6-4 3-6 7-6 12l0 32c-20-7-38-17-53-33-16-15-26-33-33-53l32 0c5 0 9-2 12-6 4-3 6-8 6-13l0-36c0-5-2-10-6-13-3-4-7-6-12-6l-32 0c7-20 17-38 33-53 15-16 33-26 53-33l0 32c0 5 2 9 6 12 3 4 8 6 13 6l36 0c5 0 10-2 13-6 4-3 6-7 6-12l0-32c20 7 38 17 53 33 16 15 26 33 33 53z m96 55l0-36c0-5-1-10-5-13-4-4-8-6-13-6l-41 0c-7-30-21-57-44-79-22-23-49-37-79-44l0-41c0-5-2-9-6-13-3-4-8-5-13-5l-36 0c-5 0-10 1-13 5-4 4-6 8-6 13l0 41c-30 7-57 21-79 44-23 22-37 49-44 79l-41 0c-5 0-9 2-13 6-4 3-5 8-5 13l0 36c0 5 1 10 5 13 4 4 8 6 13 6l41 0c7 30 21 57 44 79 22 23 49 37 79 44l0 41c0 5 2 9 6 13 3 4 8 5 13 5l36 0c5 0 10-1 13-5 4-4 6-8 6-13l0-41c30-7 57-21 79-44 23-22 37-49 44-79l41 0c5 0 9-2 13-6 4-3 5-8 5-13z"/>
<glyph unicode="&#57381;" d="M177 146l170 0 0 170z m-12 13l170 170-170 0z m329-22l0-55c0-2-1-5-3-6-2-2-4-3-6-3l-64 0 0-64c0-3-1-5-3-6-2-2-4-3-7-3l-54 0c-3 0-5 1-7 3-2 1-3 3-3 6l0 64-246 0c-3 0-5 1-7 3-2 1-3 4-3 6l0 247-64 0c-2 0-4 1-6 3-2 1-3 4-3 6l0 55c0 3 1 5 3 7 2 1 4 2 6 2l64 0 0 64c0 3 1 5 3 7 2 2 4 2 7 2l54 0c3 0 5 0 7-2 2-2 3-4 3-7l0-64 243 0 70 71c2 2 4 2 7 2 2 0 4 0 6-2 2-2 3-4 3-7 0-2-1-4-3-6l-70-71 0-243 64 0c2 0 4-1 6-2 2-2 3-4 3-7z"/>
<glyph unicode="&#57382;" d="M469 461c12 0 22-4 30-13 9-8 13-18 13-30l0-324c0-12-4-22-13-30-8-9-18-13-30-13l-426 0c-12 0-22 4-30 13-9 8-13 18-13 30l0 324c0 12 4 22 13 30 8 9 18 13 30 13z m-426-34c-3 0-5-1-6-3-2-2-3-4-3-6l0-60 444 0 0 60c0 2-1 4-3 6-1 2-3 3-6 3z m426-342c3 0 5 1 6 3 2 2 3 4 3 6l0 162-444 0 0-162c0-2 1-4 3-6 1-2 3-3 6-3z m-401 34l0 35 69 0 0-35z m103 0l0 35 102 0 0-35z"/>
<glyph unicode="&#57383;" d="M256 101l0 310c-28 0-54-7-78-20-24-14-43-33-57-57-13-24-20-50-20-78 0-28 7-54 20-78 14-24 33-43 57-57 24-13 50-20 78-20z m219 155c0-40-9-77-29-110-20-34-46-60-80-80-33-20-70-29-110-29-40 0-77 9-110 29-34 20-60 46-80 80-20 33-29 70-29 110 0 40 9 77 29 110 20 34 46 60 80 80 33 20 70 29 110 29 40 0 77-9 110-29 34-20 60-46 80-80 20-33 29-70 29-110z"/>
<glyph unicode="&#57384;" d="M219 201l74 37-74 36z m110 169l0-155-146-73 0 155z m82-114c0 28-7 54-20 78-14 24-33 43-57 57-24 13-50 20-78 20-28 0-54-7-78-20-24-14-43-33-57-57-13-24-20-50-20-78 0-28 7-54 20-78 14-24 33-43 57-57 24-13 50-20 78-20 28 0 54 7 78 20 24 14 43 33 57 57 13 24 20 50 20 78z m64 0c0-40-9-77-29-110-20-34-46-60-80-80-33-20-70-29-110-29-40 0-77 9-110 29-34 20-60 46-80 80-20 33-29 70-29 110 0 40 9 77 29 110 20 34 46 60 80 80 33 20 70 29 110 29 40 0 77-9 110-29 34-20 60-46 80-80 20-33 29-70 29-110z"/>
<glyph unicode="&#57385;" d="M64 73l174 0 0 329-183 0 0-320c0-2 1-4 3-6 1-2 4-3 6-3z m393 9l0 320-183 0 0-329 174 0c2 0 5 1 6 3 2 2 3 4 3 6z m37 348l0-348c0-12-5-23-14-32-9-9-19-13-32-13l-384 0c-13 0-23 4-32 13-9 9-14 20-14 32l0 348c0 12 5 23 14 32 9 9 19 13 32 13l384 0c13 0 23-4 32-13 9-9 14-20 14-32z"/>
<glyph unicode="&#57386;" d="M329 256c0 20-7 37-21 52-15 14-32 21-52 21-20 0-37-7-52-21-14-15-21-32-21-52 0-20 7-37 21-52 15-14 32-21 52-21 20 0 37 7 52 21 14 15 21 32 21 52z m146 31l0-63c0-3 0-5-2-7-1-2-3-3-6-4l-52-8c-4-10-8-19-12-26 7-9 17-22 31-39 2-2 3-5 3-7 0-3-1-5-3-7-5-7-14-17-28-31-14-13-23-20-27-20-2 0-5 1-7 3l-40 31c-8-5-17-8-26-11-3-26-6-44-8-53-1-6-5-8-10-8l-64 0c-2 0-5 0-7 2-2 2-3 4-3 6l-8 53c-9 3-18 6-26 10l-40-30c-2-2-4-3-7-3-3 0-5 1-7 3-24 22-40 38-47 48-2 2-2 4-2 7 0 2 0 4 2 6 3 4 8 11 14 19 7 9 12 16 16 21-5 9-9 19-12 28l-52 8c-3 0-5 1-6 3-2 2-2 4-2 7l0 63c0 3 0 5 2 7 1 2 3 3 5 4l53 8c3 8 7 17 12 26-8 11-18 24-31 39-2 3-3 5-3 7 0 2 1 4 3 7 5 7 14 17 28 30 14 14 23 21 27 21 2 0 5-1 7-3l40-31c8 5 17 8 26 11 3 26 6 44 8 53 1 6 5 8 10 8l64 0c2 0 5 0 7-2 2-2 3-4 3-6l8-53c9-3 18-6 26-10l40 30c2 2 4 3 7 3 3 0 5-1 7-3 25-23 41-39 47-49 2-1 2-3 2-6 0-2 0-4-2-6-3-4-8-11-14-19-7-9-12-16-16-21 5-9 9-18 12-28l52-8c3 0 5-1 6-3 2-2 2-4 2-7z"/>
<glyph unicode="&#57387;" d="M192 91c0 8-3 15-8 20-5 5-12 8-19 8-8 0-15-3-20-8-5-5-8-12-8-20 0-7 3-14 8-19 5-5 12-8 20-8 7 0 14 3 19 8 5 5 8 12 8 19z m0 330c0 7-3 14-8 19-5 5-12 8-19 8-8 0-15-3-20-8-5-5-8-12-8-19 0-8 3-15 8-20 5-5 12-8 20-8 7 0 14 3 19 8 5 5 8 12 8 20z m183-37c0 8-3 14-8 19-5 6-12 8-20 8-7 0-14-2-19-8-5-5-8-11-8-19 0-8 3-14 8-19 5-6 12-8 19-8 8 0 15 2 20 8 5 5 8 11 8 19z m27 0c0-10-2-19-7-28-5-8-12-15-20-19-1-55-22-95-65-119-13-7-32-15-58-23-24-7-40-14-48-20-8-6-12-16-12-29l0-7c8-5 15-12 20-20 5-8 7-18 7-28 0-15-5-28-16-38-10-11-23-16-38-16-16 0-29 5-39 16-11 10-16 23-16 38 0 10 2 20 7 28 5 8 12 15 20 20l0 234c-8 5-15 12-20 20-5 8-7 18-7 28 0 15 5 28 16 38 10 11 23 16 39 16 15 0 28-5 38-16 11-10 16-23 16-38 0-10-2-20-7-28-5-8-12-15-20-20l0-142c10 5 25 11 44 16 10 4 19 6 25 9 6 2 13 5 20 9 7 3 13 7 17 11 4 4 8 9 12 15 3 5 6 12 8 19 1 8 2 17 2 27-8 4-15 11-20 19-5 9-7 18-7 28 0 15 5 28 16 39 10 11 23 16 38 16 16 0 29-5 39-16 11-11 16-24 16-39z"/>
<glyph unicode="&#57388;" d="M165 122l-14-13c-2-2-4-3-6-3-2 0-4 1-6 3l-124 124c-2 2-3 4-3 6 0 2 1 4 3 6l124 124c2 2 4 3 6 3 2 0 4-1 6-3l14-13c1-2 2-4 2-6 0-2-1-4-2-6l-105-105 105-105c1-2 2-4 2-6 0-2-1-4-2-6z m157 284l-99-344c-1-2-2-4-4-5-3-1-5-1-7-1l-16 5c-3 1-4 2-5 4-2 2-2 4-1 6l99 345c1 2 2 4 4 5 3 1 5 1 7 1l16-5c3-1 4-2 5-4 2-2 2-4 1-7z m175-173l-124-124c-2-2-4-3-6-3-2 0-4 1-6 3l-14 13c-1 2-2 4-2 6 0 2 1 4 2 6l105 105-105 105c-1 2-2 4-2 6 0 2 1 4 2 6l14 13c2 2 4 3 6 3 2 0 4-1 6-3l124-124c2-2 3-4 3-6 0-2-1-4-3-6z"/>
<glyph unicode="&#57389;" d="M341 265c0 2 0 4-2 6l-94 94c-2 1-4 2-6 2-3 0-5-1-6-2l-94-94c-2-2-2-4-2-6 0-3 0-5 2-7 2-1 4-2 6-2l60 0 0-94c0-2 1-4 2-6 2-2 4-2 6-2l52 0c2 0 4 0 6 2 1 2 2 4 2 6l0 94 60 0c2 0 4 1 6 3 1 1 2 3 2 6z m171-77c0-29-10-53-30-73-20-20-44-30-72-30l-291 0c-32 0-61 12-84 35-23 24-35 52-35 85 0 23 6 44 19 64 12 19 29 34 50 44-1 5-1 9-1 11 0 38 14 70 40 97 27 26 59 40 97 40 28 0 53-8 76-23 23-16 40-36 50-62 13 11 28 17 44 17 19 0 35-7 49-20 13-14 20-30 20-49 0-13-4-26-11-37 23-5 42-17 57-36 15-18 22-39 22-63z"/>
<glyph unicode="&#57390;" d="M341 247c0 3 0 5-2 7-2 1-4 2-6 2l-60 0 0 94c0 2-1 4-2 6-2 2-4 2-6 2l-52 0c-2 0-4 0-6-2-1-2-2-4-2-6l0-94-60 0c-2 0-4-1-6-3-2-1-2-3-2-6 0-2 0-4 2-6l94-94c1-1 3-2 6-2 2 0 4 1 6 2l94 94c1 2 2 4 2 6z m171-59c0-29-10-53-30-73-20-20-44-30-72-30l-291 0c-32 0-61 12-84 35-23 24-35 52-35 85 0 23 6 44 19 64 12 19 29 34 50 44-1 5-1 9-1 11 0 38 14 70 40 97 27 26 59 40 97 40 28 0 53-8 76-23 23-16 40-36 50-62 13 11 28 17 44 17 19 0 35-7 49-20 13-14 20-30 20-49 0-13-4-26-11-37 23-5 42-17 57-36 15-18 22-39 22-63z"/>
<glyph unicode="&#57391;" d="M512 188c0-29-10-53-30-73-20-20-44-30-72-30l-291 0c-32 0-61 12-84 35-23 24-35 52-35 85 0 23 6 45 19 64 13 20 29 34 50 44-1 5-1 9-1 11 0 38 14 70 40 97 27 26 59 40 97 40 28 0 53-8 76-24 23-15 40-36 50-61 13 11 27 17 44 17 19 0 35-7 49-20 13-14 20-30 20-49 0-13-4-25-11-37 23-5 42-17 57-35 15-19 22-40 22-64z"/>
<glyph unicode="&#57392;" d="M350 204l-42-42c-2-2-4-3-6-3-3 0-5 1-7 3l-39 39-39-39c-2-2-4-3-7-3-2 0-4 1-6 3l-42 42c-2 2-3 4-3 6 0 3 1 5 3 7l39 39-39 39c-2 2-3 4-3 7 0 2 1 4 3 6l42 42c2 2 4 3 6 3 3 0 5-1 7-3l39-39 39 39c2 2 4 3 7 3 2 0 4-1 6-3l42-42c2-2 3-4 3-6 0-3-1-5-3-7l-39-39 39-39c2-2 3-4 3-7 0-2-1-4-3-6z m61 52c0 28-7 54-20 78-14 24-33 43-57 57-24 13-50 20-78 20-28 0-54-7-78-20-24-14-43-33-57-57-13-24-20-50-20-78 0-28 7-54 20-78 14-24 33-43 57-57 24-13 50-20 78-20 28 0 54 7 78 20 24 14 43 33 57 57 13 24 20 50 20 78z m64 0c0-40-9-77-29-110-20-34-46-60-80-80-33-20-70-29-110-29-40 0-77 9-110 29-34 20-60 46-80 80-20 33-29 70-29 110 0 40 9 77 29 110 20 34 46 60 80 80 33 20 70 29 110 29 40 0 77-9 110-29 34-20 60-46 80-80 20-33 29-70 29-110z"/>
<glyph unicode="&#57393;" d="M79 475l430 0-76-380-230-77-200 77 21 101 85 0-9-42 121-46 139 46 19 97-345 0 17 85 345 0 11 55-345 0z"/>
<glyph unicode="&#57394;" d="M444 324c0 14-5 27-15 37-10 9-22 14-36 14l-18 0 0-102 18 0c14 0 26 5 36 15 10 10 15 22 15 36z m-444-205l478 0c0-18-7-34-20-48-13-13-30-20-48-20l-342 0c-19 0-35 7-48 20-13 14-20 30-20 48z m495 205c0-28-10-52-30-72-20-20-44-30-72-30l-18 0 0-9c0-16-5-30-17-42-12-12-26-17-42-17l-188 0c-16 0-30 5-42 17-12 12-18 26-18 42l0 197c0 4 2 8 5 12 4 3 8 5 12 5l308 0c28 0 52-10 72-30 20-20 30-44 30-73z"/>
<glyph unicode="&#57395;" d="M403 357l-101-101 101-101 41 41c6 6 12 7 20 4 8-4 11-9 11-17l0-128c0-5-1-9-5-13-4-4-8-5-13-5l-128 0c-8 0-13 3-17 11-3 7-2 14 4 20l41 41-101 101-101-101 41-41c6-6 7-13 4-20-4-8-9-11-17-11l-128 0c-5 0-9 1-13 5-4 4-5 8-5 13l0 128c0 8 3 13 11 17 7 3 14 2 20-4l41-41 101 101-101 101-41-41c-4-3-8-5-13-5-2 0-5 0-7 1-8 4-11 9-11 17l0 128c0 5 1 9 5 13 4 4 8 5 13 5l128 0c8 0 13-3 17-11 3-7 2-14-4-20l-41-41 101-101 101 101-41 41c-6 6-7 13-4 20 4 8 9 11 17 11l128 0c5 0 9-1 13-5 4-4 5-8 5-13l0-128c0-8-3-13-11-17-2-1-5-1-7-1-5 0-9 2-13 5z"/>
<glyph unicode="&#57396;" d="M512 256c0-5-2-9-5-13l-74-73c-3-4-7-5-12-5-5 0-10 1-13 5-4 4-6 8-6 13l0 36-109 0 0-109 36 0c5 0 9-2 13-6 4-3 5-8 5-13 0-5-1-9-5-12l-73-74c-4-3-8-5-13-5-5 0-9 2-13 5l-73 74c-4 3-5 7-5 12 0 5 1 10 5 13 4 4 8 6 13 6l36 0 0 109-109 0 0-36c0-5-2-9-6-13-3-4-8-5-13-5-5 0-9 1-12 5l-74 73c-3 4-5 8-5 13 0 5 2 9 5 13l74 73c3 4 7 5 12 5 5 0 10-1 13-5 4-4 6-8 6-13l0-36 109 0 0 109-36 0c-5 0-9 2-13 6-4 3-5 8-5 13 0 5 1 9 5 12l73 74c4 3 8 5 13 5 5 0 9-2 13-5l73-74c4-3 5-7 5-12 0-5-1-10-5-13-4-4-8-6-13-6l-36 0 0-109 109 0 0 36c0 5 2 9 6 13 3 4 8 5 13 5 5 0 9-1 12-5l74-73c3-4 5-8 5-13z"/>
<glyph unicode="&#57397;" d="M274 256c5 0 10-2 13-5 4-4 6-8 6-13 0-5-2-10-6-13-3-4-8-6-13-6-5 0-9 2-13 6-3 3-5 8-5 13 0 5 2 9 5 13 4 3 8 5 13 5z m86-18l145-114c5-4 8-9 7-16-1-7-4-12-10-15l-37-18c-2-1-5-2-8-2-3 0-6 1-9 2l-197 111-31-19c-2-1-3-1-4-1 3-10 4-19 3-28-1-15-7-29-16-42-9-14-22-25-38-35-25-16-51-24-79-24-26 0-47 7-63 22-17 16-25 36-23 59 2 14 7 28 16 42 10 14 22 25 38 35 25 16 51 24 79 24 16 0 30-3 43-8 2 2 4 4 7 6l34 21-34 21c-3 1-5 3-7 6-13-6-27-9-43-9-28 0-54 8-79 24-16 10-28 22-38 35-9 14-14 28-16 42-1 12 1 22 5 33 4 10 10 19 18 26 16 15 37 23 63 23 28 0 54-8 79-24 16-10 29-22 38-35 9-14 15-28 16-43 1-9 0-18-3-27 1 0 2-1 4-2l31-19 197 111c3 2 6 2 9 2 3 0 6 0 8-2l37-18c6-3 9-8 10-15 1-6-2-12-7-16z m-195 74c9 8 11 18 6 31-4 12-14 24-30 33-17 12-36 17-55 17-14 0-25-3-32-10-9-8-11-18-6-31 5-13 15-24 30-33 18-12 36-17 55-17 14 0 25 3 32 10z m-24-213c16 10 26 21 30 34 5 12 3 22-6 30-7 7-18 11-32 11-19 0-37-6-55-17-15-10-25-21-30-34-5-12-3-22 6-30 7-7 18-11 32-11 19 0 38 6 55 17z m51 175l27-16 0 3c0 7 4 12 10 16l4 2-23 14-7-8c-1 0-2-1-3-3-1-2-2-3-3-3-1-1-1-1-2-1 0-1 0-1 0-1z m64-64l27-9 211 165-37 18-219-123 0-32-46-28 3-2c0-1 1-1 2-2 0-1 1-2 3-3 1-2 2-3 3-4l7-7z m201-119l37 19-149 116-50-39c-1-1-2-1-4-2z"/>
<glyph unicode="&#57398;" d="M238 494l0-183c0-12-4-22-10-32-7-9-16-16-27-20l0-222c0-10-3-19-11-26-7-7-16-11-25-11l-37 0c-10 0-18 4-26 11-7 7-11 16-11 26l0 222c-10 4-19 11-26 20-7 10-10 20-10 32l0 183c0 5 2 9 5 13 4 3 8 5 13 5 5 0 9-2 13-5 4-4 5-8 5-13l0-119c0-5 2-9 6-13 3-4 8-5 13-5 5 0 9 1 13 5 3 4 5 8 5 13l0 119c0 5 2 9 5 13 4 3 8 5 13 5 5 0 10-2 13-5 4-4 6-8 6-13l0-119c0-5 1-9 5-13 4-4 8-5 13-5 5 0 9 1 13 5 3 4 5 8 5 13l0 119c0 5 2 9 6 13 3 3 7 5 12 5 5 0 10-2 13-5 4-4 6-8 6-13z m219 0l0-457c0-10-3-19-11-26-7-7-16-11-25-11l-37 0c-10 0-18 4-26 11-7 7-11 16-11 26l0 146-64 0c-2 0-4 1-6 3-2 1-3 4-3 6l0 229c0 25 9 46 27 64 18 18 40 27 65 27l73 0c5 0 9-2 13-5 3-4 5-8 5-13z"/>
<glyph unicode="&#57399;" d="M365 191c0 5-2 10-6 13l-51 52 51 52c4 3 6 8 6 13 0 5-2 9-6 13l-25 25c-4 4-8 6-13 6-5 0-10-2-13-6l-52-51-52 51c-3 4-8 6-13 6-5 0-9-2-13-6l-25-25c-4-4-6-8-6-13 0-5 2-10 6-13l51-52-51-52c-4-3-6-8-6-13 0-5 2-9 6-13l25-25c4-4 8-6 13-6 5 0 10 2 13 6l52 51 52-51c3-4 8-6 13-6 5 0 9 2 13 6l25 25c4 4 6 8 6 13z m110 65c0-40-9-77-29-110-20-34-46-60-80-80-33-20-70-29-110-29-40 0-77 9-110 29-34 20-60 46-80 80-20 33-29 70-29 110 0 40 9 77 29 110 20 34 46 60 80 80 33 20 70 29 110 29 40 0 77-9 110-29 34-20 60-46 80-80 20-33 29-70 29-110z"/>
<glyph unicode="&#57400;" d="M411 257c0 31-8 59-24 84l-216-215c26-17 55-25 85-25 21 0 41 4 60 12 20 8 36 19 50 33 14 14 25 31 33 50 8 19 12 40 12 61z m-285-86l216 216c-26 17-55 26-86 26-28 0-54-7-78-21-24-14-43-33-57-57-13-24-20-50-20-78 0-31 8-59 25-86z m349 86c0-30-5-59-17-86-12-27-27-51-47-70-19-20-43-35-70-47-27-12-55-17-85-17-30 0-58 5-85 17-27 12-51 27-70 47-20 19-35 43-47 70-12 27-17 56-17 86 0 30 5 58 17 85 12 28 27 51 47 71 19 19 43 35 70 46 27 12 55 18 85 18 30 0 58-6 85-18 27-11 51-27 70-46 20-20 35-43 47-71 12-27 17-55 17-85z"/>
<glyph unicode="&#57401;" d="M91 347c0-5-1-9-5-12-4-4-8-6-13-6-5 0-9 2-13 6-3 3-5 7-5 12 0 6 2 10 5 13 4 4 8 6 13 6 5 0 9-2 13-6 4-3 5-7 5-13z m46-146l0 183c0 5-2 9-5 13-4 3-8 5-13 5l-82 0c-5 0-10-2-13-5-4-4-6-8-6-13l0-183c0-5 2-9 6-13 3-3 8-5 13-5l82 0c5 0 9 2 13 5 3 4 5 8 5 13z m323 43c10-12 15-26 15-43 0-15-5-28-16-38-11-11-24-17-38-17l-80 0c1-2 2-5 3-7 0-1 2-4 3-6 1-2 2-4 3-5 3-7 6-12 7-16 2-4 4-10 6-17 2-7 3-15 3-22 0-4 0-8 0-11-1-3-1-7-2-13-1-6-2-10-3-14-2-4-4-8-7-13-3-5-7-9-12-12-4-3-10-5-17-7-7-2-15-3-23-3-5 0-10 2-13 5-4 4-7 9-10 15-3 5-4 10-5 15-1 4-3 10-4 17-2 8-3 14-4 17-1 4-2 8-5 14-2 6-5 10-9 14-6 6-16 18-29 34-9 12-19 24-28 35-10 11-18 16-22 17-5 0-9 2-12 5-4 4-6 8-6 13l0 183c0 5 2 9 6 13 3 3 8 5 13 5 6 0 21 5 45 13 15 5 26 9 34 11 9 3 20 5 35 8 15 3 29 5 41 5l37 0c25-1 44-8 56-22 11-14 16-31 14-52 8-7 13-16 16-27 3-12 3-23 0-33 8-12 13-25 12-40 0-6-1-13-4-21z"/>
<glyph unicode="&#57402;" d="M165 128c0-5-2-9-6-13-3-3-8-5-13-5-5 0-9 2-13 5-3 4-5 8-5 13 0 5 2 9 5 13 4 3 8 5 13 5 5 0 10-2 13-5 4-4 6-8 6-13z m292-17c0-23-7-42-21-55-14-13-32-19-55-19l-250 0c-23 0-41 6-55 19-14 13-21 32-21 55 0 13 0 25 1 37 1 12 4 25 7 39 4 15 8 27 14 38 5 11 13 21 23 30 10 8 21 14 34 17-4-10-6-21-6-34l0-58c-11-4-20-11-27-20-6-10-10-20-10-32 0-15 6-28 16-39 11-11 24-16 39-16 16 0 28 5 39 16 11 11 16 24 16 39 0 12-3 22-10 32-7 9-16 16-26 20l0 58c0 12 2 20 7 26 25-20 53-29 84-29 31 0 59 9 84 29 5-6 7-14 7-26l0-19c-20 0-37-7-51-21-15-14-22-32-22-52l0-25c-6-6-9-12-9-20 0-8 3-15 8-20 5-5 12-8 20-8 7 0 14 3 19 8 5 5 8 12 8 20 0 8-3 14-9 20l0 25c0 10 3 19 11 26 7 7 16 11 25 11 10 0 19-4 26-11 7-7 11-16 11-26l0-25c-6-6-9-12-9-20 0-8 3-15 8-20 5-5 12-8 19-8 8 0 14 3 20 8 5 5 8 12 8 20 0 8-3 14-9 20l0 25c0 13-4 25-10 37-7 11-16 20-27 26 0 2 0 6 0 13 0 6 0 10 0 13 0 3 0 7-1 12 0 5-1 10-2 14-1 4-2 7-3 11 13-3 24-9 34-17 10-9 18-19 23-30 6-11 10-23 14-38 3-14 6-27 7-39 1-12 1-24 1-37z m-91 255c0-31-11-56-32-78-22-21-48-32-78-32-30 0-56 11-78 32-21 22-32 47-32 78 0 30 11 56 32 77 22 22 48 32 78 32 30 0 56-10 78-32 21-21 32-47 32-77z"/>
<glyph unicode="&#57403;" d="M366 174l0-19c0-2-1-4-3-6-2-2-4-3-6-3l-202 0c-2 0-4 1-6 3-2 2-3 4-3 6l0 19c0 2 1 5 3 6 2 2 4 3 6 3l202 0c2 0 4-1 6-3 2-1 3-4 3-6z m0 73l0-18c0-3-1-5-3-7-2-2-4-3-6-3l-202 0c-2 0-4 1-6 3-2 2-3 4-3 7l0 18c0 3 1 5 3 6 2 2 4 3 6 3l202 0c2 0 4-1 6-3 2-1 3-3 3-6z m-256-174l292 0 0 220-119 0c-7 0-14 2-19 8-5 5-8 11-8 19l0 119-146 0z m183 256l107 0c-2 6-4 10-6 12l-90 89c-2 3-6 5-11 7z m146-9l0-256c0-8-3-14-8-19-5-6-12-8-20-8l-310 0c-8 0-15 2-20 8-5 5-8 11-8 19l0 384c0 8 3 14 8 19 5 6 12 8 20 8l182 0c8 0 16-1 26-5 9-4 16-9 21-14l89-89c6-5 10-13 14-22 4-9 6-17 6-25z"/>
<glyph unicode="&#57404;" d="M389 173c0-29-9-54-28-75-19-21-44-34-74-39l0-50c0-3-1-5-3-6-1-2-4-3-6-3l-39 0c-2 0-4 1-6 3-2 2-3 4-3 6l0 50c-13 2-25 5-36 9-12 4-22 8-29 13-8 4-15 9-22 13-6 5-10 9-13 11-2 2-4 4-5 5-3 4-3 8 0 12l29 39c1 1 4 3 7 3 2 0 5 0 6-3l1 0c22-19 45-31 69-36 7-1 15-2 22-2 15 0 29 4 40 12 12 8 18 20 18 35 0 5-2 10-4 15-3 5-6 9-10 12-4 3-9 7-17 11-7 4-14 7-19 9-5 2-12 5-22 9-8 3-14 6-18 7-4 2-10 5-18 8-7 3-13 6-17 9-5 2-10 6-17 10-6 4-11 8-15 12-4 4-8 9-12 14-5 6-8 11-10 17-3 5-5 12-6 19-2 7-3 14-3 22 0 26 9 49 28 69 19 20 43 33 73 38l0 52c0 2 1 4 3 6 2 2 4 3 6 3l39 0c2 0 5-1 6-3 2-1 3-3 3-6l0-50c11-2 21-4 31-7 11-3 19-6 25-10 7-3 13-6 18-10 6-4 10-7 12-9 1-1 3-2 4-4 3-3 4-7 1-10l-23-42c-1-3-4-5-6-5-3 0-6 0-8 2-1 1-2 2-4 4-2 1-6 4-11 7-6 4-11 7-17 9-6 3-13 6-21 8-9 2-17 3-25 3-18 0-33-4-44-12-12-8-17-19-17-32 0-5 1-9 2-14 2-4 5-8 9-11 4-4 7-7 11-10 3-2 9-5 16-9 7-3 13-6 17-7 5-2 11-5 20-8 10-4 18-7 23-9 6-2 13-6 22-10 9-5 16-9 22-12 5-4 11-9 17-15 7-6 12-12 15-18 4-6 7-13 9-22 3-8 4-17 4-27z"/>
<glyph unicode="&#57405;" d="M384 128c0 5-2 9-5 13-4 3-8 5-13 5-5 0-10-2-13-5-4-4-6-8-6-13 0-5 2-9 6-13 3-3 8-5 13-5 5 0 9 2 13 5 3 4 5 8 5 13z m73 0c0 5-2 9-5 13-4 3-8 5-13 5-5 0-9-2-13-5-4-4-5-8-5-13 0-5 1-9 5-13 4-3 8-5 13-5 5 0 9 2 13 5 3 4 5 8 5 13z m37 64l0-91c0-8-3-15-8-20-6-5-12-8-20-8l-420 0c-8 0-14 3-20 8-5 5-8 12-8 20l0 91c0 8 3 14 8 19 6 6 12 8 20 8l133 0 38-38c11-11 24-16 39-16 15 0 28 5 39 16l39 38 132 0c8 0 14-2 20-8 5-5 8-11 8-19z m-93 163c3-8 2-15-4-20l-128-128c-4-4-8-6-13-6-5 0-9 2-13 6l-128 128c-6 5-7 12-4 20 3 7 9 11 17 11l73 0 0 128c0 5 2 9 6 13 3 3 7 5 12 5l74 0c5 0 9-2 12-5 4-4 6-8 6-13l0-128 73 0c8 0 14-4 17-11z"/>
<glyph unicode="&#57406;" d="M293 119l0 54c0 3-1 5-3 7-2 2-4 3-7 3l-54 0c-3 0-5-1-7-3-2-2-3-4-3-7l0-54c0-3 1-5 3-7 2-1 4-2 7-2l54 0c3 0 5 1 7 2 2 2 3 4 3 7z m-1 107l5 131c0 2-1 4-3 6-2 2-4 3-7 3l-62 0c-3 0-5-1-7-3-2-2-3-4-3-6l5-131c0-2 1-3 3-5 1-1 4-2 6-2l53 0c3 0 5 1 7 2 2 2 3 3 3 5z m-4 267l219-402c7-12 7-24 0-36-3-6-8-10-13-14-6-3-12-4-19-4l-438 0c-7 0-13 1-19 4-5 4-10 8-13 14-7 12-7 24 0 36l219 402c3 6 8 10 13 14 6 3 12 5 19 5 7 0 13-2 19-5 5-4 10-8 13-14z"/>
<glyph unicode="&#57407;" d="M256 475c40 0 77-9 110-29 34-20 60-46 80-80 20-33 29-70 29-110 0-40-9-77-29-110-20-34-46-60-80-80-33-20-70-29-110-29-40 0-77 9-110 29-34 20-60 46-80 80-20 33-29 70-29 110 0 40 9 77 29 110 20 34 46 60 80 80 33 20 70 29 110 29z m37-356l0 54c0 3-1 5-3 7-2 2-4 3-6 3l-55 0c-3 0-5-1-7-3-2-2-3-4-3-7l0-54c0-2 1-5 3-6 2-2 4-3 7-3l55 0c2 0 4 1 6 2 2 2 3 4 3 7z m-1 98l5 178c0 2-1 4-3 5-2 2-4 2-7 2l-62 0c-3 0-5 0-7-2-2-1-3-3-3-5l5-178c0-1 1-3 3-5 1-1 4-2 6-2l53 0c3 0 5 1 7 2 2 2 3 4 3 5z"/>
<glyph unicode="&#57408;" d="M311 155l0-64c0-5-2-9-6-12-3-4-7-6-12-6l-74 0c-5 0-9 2-12 6-4 3-6 7-6 12l0 64c0 5 2 10 6 13 3 4 7 6 12 6l74 0c5 0 9-2 12-6 4-3 6-8 6-13z m8 302l-8-219c0-5-2-10-5-13-4-4-8-6-13-6l-74 0c-5 0-9 2-13 6-3 3-5 8-5 13l-8 219c-1 5 1 9 5 13 3 4 7 5 12 5l92 0c5 0 9-1 12-5 4-4 6-8 5-13z"/>
<glyph unicode="&#57409;" d="M512 174l0-55c0-3-1-5-3-7-2-1-4-2-6-2l-393 0 0-55c0-3-1-5-3-7-2-1-4-2-6-2-3 0-5 1-7 3l-91 91c-2 2-3 4-3 6 0 3 1 5 3 7l91 91c2 2 4 3 7 3 2 0 4-1 6-3 2-2 3-4 3-6l0-55 393 0c2 0 4-1 6-3 2-2 3-4 3-6z m0 155c0-3-1-5-3-6l-91-92c-2-2-4-2-7-2-2 0-4 0-6 2-2 2-3 4-3 7l0 55-393 0c-2 0-4 0-6 2-2 2-3 4-3 7l0 55c0 2 1 4 3 6 2 2 4 3 6 3l393 0 0 55c0 2 1 4 3 6 2 2 4 3 6 3 3 0 5-1 7-3l91-91c2-2 3-4 3-7z"/>
<glyph unicode="&#57410;" d="M389 139l10-46c0-2 0-4-1-6-1-2-3-4-5-4l-2-1c0 0-1 0-3-1-1 0-2 0-4-1-2-1-4-1-6-2-3 0-5-1-8-1-2 0-5-1-8-1-3-1-6-1-10-2-3 0-6 0-10-1-4 0-8 0-11 0-45 0-84 13-117 37-33 25-56 59-68 101l-27 0c-3 0-5 1-7 3-1 1-2 4-2 6l0 32c0 3 1 5 2 7 2 2 4 2 7 2l19 0c-1 11-1 21 0 30l-19 0c-3 0-5 1-7 3-1 2-2 4-2 7l0 32c0 3 1 5 2 7 2 1 4 2 7 2l28 0c13 40 36 72 69 97 34 24 72 36 115 36 19 0 38-2 55-6 2-1 4-2 6-4 1-3 1-5 1-7l-12-46c-1-2-2-4-4-5-3-2-5-2-7-1l-1 0c-1 0-2 1-4 1l-5 1c0 0-2 0-6 1-4 1-7 1-8 1 0 0-3 0-8 1-5 0-8 0-8 0-24 0-46-6-65-18-19-13-33-29-43-51l134 0c3 0 5-1 7-3 2-2 3-5 2-8l-7-32c-1-5-4-8-9-8l-139 0c-1-7-1-17 0-30l131 0c3 0 5-1 7-3 2-2 2-5 2-8l-7-32c-1-2-2-4-3-5-2-1-4-2-6-2l-111 0c10-22 24-40 43-53 19-13 41-20 65-20 4 0 7 0 11 1 3 0 6 0 9 1 3 0 6 1 9 1 2 0 5 1 7 1 2 1 3 1 5 2l3 1 2 0c2 1 5 1 7 0 3-2 4-4 5-6z"/>
<glyph unicode="&#57411;" d="M165 302l0-55c0-8-3-14-8-20-6-5-12-8-20-8l-55 0c-7 0-14 3-19 8-5 6-8 12-8 20l0 55c0 7 3 14 8 19 5 5 12 8 19 8l55 0c8 0 14-3 20-8 5-5 8-12 8-19z m146 0l0-55c0-8-3-14-8-20-5-5-12-8-20-8l-54 0c-8 0-15 3-20 8-5 6-8 12-8 20l0 55c0 7 3 14 8 19 5 5 12 8 20 8l54 0c8 0 15-3 20-8 5-5 8-12 8-19z m146 0l0-55c0-8-3-14-8-20-5-5-12-8-19-8l-55 0c-8 0-14 3-20 8-5 6-8 12-8 20l0 55c0 7 3 14 8 19 6 5 12 8 20 8l55 0c7 0 14-3 19-8 5-5 8-12 8-19z"/>
<glyph unicode="&#57412;" d="M512 309l0-227c0-12-4-23-13-32-9-9-20-13-33-13l-420 0c-13 0-24 4-33 13-9 9-13 20-13 32l0 227c8-9 18-17 29-25 69-47 116-79 142-98 11-8 20-15 26-19 7-4 16-9 27-14 12-4 22-7 32-7l0 0c10 0 20 3 32 7 11 5 20 10 27 14 6 4 15 11 26 19 33 23 80 56 142 98 11 8 21 16 29 25z m0 84c0-15-5-29-14-43-9-14-21-25-35-35-71-50-116-81-134-93-1-1-6-4-12-9-6-4-11-8-15-11-4-2-9-5-15-9-6-3-11-6-16-8-6-1-10-2-15-2l0 0c-5 0-9 1-15 2-5 2-10 5-16 8-6 4-11 7-15 9-4 3-9 7-15 11-6 5-11 8-12 9-18 12-43 30-75 52-33 23-52 36-59 41-12 8-23 19-33 33-11 14-16 27-16 39 0 15 4 27 12 37 8 10 19 15 34 15l420 0c13 0 23-5 32-14 9-9 14-19 14-32z"/>
<glyph unicode="&#57413;" d="M311 155l0-54c0-8-3-15-8-20-5-5-12-8-20-8l-54 0c-8 0-15 3-20 8-5 5-8 12-8 20l0 54c0 8 3 15 8 20 5 5 12 8 20 8l54 0c8 0 15-3 20-8 5-5 8-12 8-20z m0 147l0-55c0-8-3-14-8-20-5-5-12-8-20-8l-54 0c-8 0-15 3-20 8-5 6-8 12-8 20l0 55c0 7 3 14 8 19 5 5 12 8 20 8l54 0c8 0 15-3 20-8 5-5 8-12 8-19z m0 146l0-55c0-7-3-14-8-19-5-6-12-8-20-8l-54 0c-8 0-15 2-20 8-5 5-8 12-8 19l0 55c0 8 3 14 8 19 5 6 12 8 20 8l54 0c8 0 15-2 20-8 5-5 8-11 8-19z"/>
<glyph unicode="&#57414;" d="M40 232l203 203c4 4 8 6 13 6 5 0 9-2 13-6l203-203c3-3 5-6 3-9-1-2-4-4-9-4l-420 0c-5 0-8 2-9 4-2 3 0 6 3 9z m417-159l-402 0c-5 0-9 2-13 6-4 3-5 7-5 12l0 74c0 5 1 9 5 12 4 4 8 6 13 6l402 0c5 0 9-2 13-6 4-3 5-7 5-12l0-74c0-5-1-9-5-12-4-4-8-6-13-6z"/>
<glyph unicode="&#57415;" d="M254 174l33 33-44 43-33-33 0-16 28 0 0-27z m125 205c-3 3-6 3-9 0l-100-100c-3-3-3-6 0-9 3-3 6-3 9 0l100 100c3 3 3 6 0 9z m23-169l0-55c0-22-8-42-24-58-16-16-35-24-58-24l-238 0c-22 0-42 8-58 24-16 16-24 36-24 58l0 238c0 23 8 42 24 58 16 16 36 24 58 24l238 0c12 0 23-2 33-7 3-1 5-3 6-6 0-4-1-6-3-9l-14-14c-3-2-6-3-9-2-5 1-9 2-13 2l-238 0c-12 0-23-5-32-14-9-9-13-19-13-32l0-238c0-12 4-23 13-32 9-9 20-13 32-13l238 0c13 0 23 4 32 13 9 9 14 20 14 32l0 36c0 3 1 5 2 7l19 18c2 3 6 4 10 2 3-2 5-4 5-8z m-27 211l82-83-192-192-82 0 0 83z m127-38l-27-26-82 82 26 26c6 5 12 8 20 8 7 0 14-3 19-8l44-43c5-6 8-12 8-20 0-7-3-14-8-19z"/>
<glyph unicode="&#57416;" d="M239 119l90 103-205 0-90-103z m270 288c3-6 4-13 3-19-1-7-4-13-9-18l-238-273c-7-8-16-12-26-12l-205 0c-7 0-13 2-18 6-6 3-10 8-13 14-3 6-4 13-3 19 1 7 4 13 9 18l238 273c7 8 16 12 26 12l205 0c7 0 13-2 18-6 6-3 10-8 13-14z"/>
<glyph unicode="&#57417;" d="M115 310l141-87-98-82-140 92z m282-159l0-30-140-84 0 0-1 0 0 0 0 0-140 84 0 30 42-27 98 81 0 1 0-1 1 1 0-1 98-81z m-239 327l98-81-141-87-97 77z m239-168l97-77-140-92-98 82z m-43 168l140-91-97-77-141 87z"/>
<glyph unicode="&#57418;" d="M329 83c-8 46-21 94-40 143l0 0-1-1c-3-1-7-2-12-4-5-2-15-7-29-14-14-8-27-15-39-24-12-8-25-19-38-32-13-14-22-28-29-43l-4 3c35-28 74-42 119-42 25 0 50 5 73 14z m-53 174c-4 9-9 20-15 32-59-18-123-27-192-27 0-1 0-3 0-6 0-24 4-46 12-68 9-21 20-40 36-57 9 17 21 33 35 47 14 15 27 27 41 36 13 9 25 17 37 23 12 7 21 11 28 14l11 4c1 0 2 0 4 1 1 0 3 0 3 1z m-30 60c-23 41-46 77-70 108-26-12-49-30-67-53-18-23-30-49-36-77 57 0 115 7 173 22z m195-91c-40 12-79 14-117 9 17-46 29-91 37-134 21 14 39 32 53 54 14 22 23 45 27 71z m-230 212c0 0 0 0 0 0 0 0 0 0 0 0z m169-41c-36 31-77 46-124 46-14 0-29-1-44-5 25-32 48-69 70-109 13 5 26 11 37 17 12 7 21 13 28 18 6 5 13 10 18 16 6 6 10 10 11 12z m63-139c0 44-14 83-42 117l0 0c-2-2-4-5-6-7-2-3-6-7-12-13-7-6-13-12-21-17-7-6-16-12-28-19-12-7-25-13-38-18 5-10 9-19 13-27 0-1 1-3 2-5 1-2 1-4 2-5 7 1 14 2 21 2 7 0 14 1 21 1 7 0 13-1 20-1 6 0 12-1 18-1 6 0 11-1 16-2 5 0 10-1 14-1 4-1 8-2 10-2 3-1 6-1 8-1z m32-2c0-40-9-77-29-110-20-34-46-60-80-80-33-20-70-29-110-29-40 0-77 9-110 29-34 20-60 46-80 80-20 33-29 70-29 110 0 40 9 77 29 110 20 34 46 60 80 80 33 20 70 29 110 29 40 0 77-9 110-29 34-20 60-46 80-80 20-33 29-70 29-110z"/>
<glyph unicode="&#57419;" d="M402 247l0-92c0-22-8-42-24-58-16-16-35-24-58-24l-238 0c-22 0-42 8-58 24-16 16-24 36-24 58l0 238c0 23 8 42 24 58 16 16 36 24 58 24l201 0c3 0 5 0 7-2 2-2 3-4 3-7l0-18c0-3-1-5-3-7-2-1-4-2-7-2l-201 0c-12 0-23-5-32-14-9-9-13-19-13-32l0-238c0-12 4-23 13-32 9-9 20-13 32-13l238 0c13 0 23 4 32 13 9 9 14 20 14 32l0 92c0 3 1 5 2 6 2 2 4 3 7 3l18 0c3 0 5-1 7-3 1-1 2-3 2-6z m110 247l0-147c0-5-2-9-5-12-4-4-8-6-13-6-5 0-10 2-13 6l-50 50-187-186c-2-2-4-3-6-3-3 0-5 1-7 3l-32 32c-2 2-3 4-3 7 0 2 1 4 3 6l186 187-50 50c-4 3-6 8-6 13 0 5 2 9 6 13 3 3 7 5 12 5l147 0c5 0 9-2 13-5 3-4 5-8 5-13z"/>
<glyph unicode="&#57420;" d="M402 247l0 137c0 5-2 9-5 13-4 3-8 5-13 5l-137 0c-8 0-14-3-17-11-3-8-2-14 4-20l41-41-152-153c-4-3-6-7-6-12 0-5 2-10 6-13l29-29c3-4 8-6 13-6 5 0 9 2 12 6l153 152 41-41c4-4 8-5 13-5 2 0 5 0 7 1 8 3 11 9 11 17z m73 146l0-274c0-23-8-42-24-58-16-16-35-24-58-24l-274 0c-23 0-42 8-58 24-16 16-24 35-24 58l0 274c0 23 8 42 24 58 16 16 35 24 58 24l274 0c23 0 42-8 58-24 16-16 24-35 24-58z"/>
<glyph unicode="&#57421;" d="M475 238c-29 45-65 78-108 101 11-20 17-42 17-65 0-35-13-65-38-90-25-25-55-38-90-38-35 0-65 13-90 38-25 25-38 55-38 90 0 23 6 45 17 65-43-23-79-56-108-101 25-39 57-70 95-94 38-23 79-34 124-34 45 0 86 11 124 34 38 24 70 55 95 94z m-205 109c0 4-2 7-4 10-3 3-6 4-10 4-24 0-44-8-61-25-17-17-26-38-26-62 0-4 1-7 4-9 3-3 6-4 10-4 4 0 7 1 10 4 2 2 4 5 4 9 0 17 5 31 17 42 12 12 26 18 42 18 4 0 7 1 10 4 2 2 4 6 4 9z m242-109c0-7-2-13-6-20-26-44-62-79-107-105-45-27-93-40-143-40-50 0-98 13-143 40-45 26-81 61-107 105-4 7-6 13-6 20 0 6 2 13 6 19 26 44 62 79 107 106 45 26 93 39 143 39 50 0 98-13 143-39 45-27 81-62 107-106 4-6 6-13 6-19z"/>
<glyph unicode="&#57422;" d="M159 131l22 40c-17 12-30 27-39 45-9 19-14 38-14 58 0 23 6 45 17 65-43-23-79-56-108-101 31-49 72-85 122-107z m111 216c0 4-2 7-4 10-3 3-6 4-10 4-24 0-44-8-61-25-17-17-26-38-26-62 0-4 1-7 4-9 3-3 6-4 10-4 4 0 7 1 10 4 2 2 4 5 4 9 0 17 5 31 17 42 12 12 26 18 42 18 4 0 7 1 10 4 2 2 4 6 4 9z m103 55c0-1 0-2 0-3-20-35-50-89-90-161-40-72-70-126-90-162l-14-26c-2-3-5-4-8-4-2 0-15 6-38 20-3 2-5 4-5 8 0 2 4 10 13 25-28 12-53 28-76 49-23 21-43 44-59 70-4 6-6 12-6 20 0 7 2 14 6 19 29 45 65 81 108 106 44 26 91 39 142 39 17 0 34-1 51-5l16 28c2 3 4 5 8 5 1 0 3-1 5-2 2-1 5-3 9-4 3-2 6-4 9-6 3-1 6-3 9-5 3-2 5-3 6-3 3-2 4-5 4-8z m11-128c0-26-8-50-23-72-15-22-35-38-59-47l80 143c1-8 2-16 2-24z m128-36c0-7-2-14-6-20-7-12-18-26-31-41-28-33-62-59-99-77-38-18-78-27-120-27l21 38c41 3 78 16 112 39 35 23 63 52 86 88-21 34-48 62-80 84l18 32c18-12 35-27 52-44 17-17 30-34 41-53 4-6 6-13 6-19z"/>
<glyph unicode="&#57423;" d="M292 353l74 0-9-81-65 0 0-235-97 0 0 235-49 0 0 81 49 0 0 49c0 35 8 61 24 79 17 18 44 26 81 26l65 0 0-81-40 0c-8 0-14 0-18-2-5-1-8-3-10-6-2-4-3-7-4-10 0-3-1-8-1-14z"/>
<glyph unicode="&#57424;" d="M410 250l7 62-57 0 0 31c0 10 1 16 4 20 3 4 10 6 21 6l31 0 0 62-50 0c-29 0-49-7-62-20-13-14-19-34-19-61l0-38-37 0 0-62 37 0 0-182 75 0 0 182z m65 143l0-274c0-23-8-42-24-58-16-16-35-24-58-24l-274 0c-23 0-42 8-58 24-16 16-24 35-24 58l0 274c0 23 8 42 24 58 16 16 35 24 58 24l274 0c23 0 42-8 58-24 16-16 24-35 24-58z"/>
<glyph unicode="&#57425;" d="M499 472c4 3 7 5 9 3 3-1 4-4 4-9l0-420c0-5-1-8-4-9-2-2-5 0-9 3l-203 203c-1 2-3 4-3 6l0-203c0-5-2-8-4-9-3-2-6 0-9 3l-203 203c-2 2-3 4-4 6l0-194c0-5-2-9-5-13-4-4-8-5-13-5l-37 0c-5 0-9 1-13 5-3 4-5 8-5 13l0 402c0 5 2 9 5 13 4 4 8 5 13 5l37 0c5 0 9-1 13-5 3-4 5-8 5-13l0-194c1 3 2 4 4 6l203 203c3 3 6 5 9 3 2-1 4-4 4-9l0-203c0 3 2 4 3 6z"/>
<glyph unicode="&#57426;" d="M13 40c-4-3-7-5-9-3-3 1-4 4-4 9l0 420c0 5 1 8 4 9 2 2 5 0 9-3l203-203c1-2 2-3 3-6l0 203c0 5 2 8 4 9 3 2 6 0 9-3l203-203c2-2 3-3 4-6l0 194c0 5 2 9 5 13 4 4 8 5 13 5l37 0c5 0 9-1 13-5 3-4 5-8 5-13l0-402c0-5-2-9-5-13-4-4-8-5-13-5l-37 0c-5 0-9 1-13 5-3 4-5 8-5 13l0 194c-1-2-2-4-4-6l-203-203c-3-3-6-5-9-3-2 1-4 4-4 9l0 203c-1-2-2-4-3-6z"/>
<glyph unicode="&#57427;" d="M439 210c0-7-3-14-8-19-5-5-12-8-20-8-9 0-17 4-22 12l-65 98-13 0 0-38 70-118c2-2 3-6 3-9 0-5-2-9-5-13-4-3-8-5-13-5l-55 0 0-78c0-9-3-16-10-23-6-6-13-9-22-9l-46 0c-9 0-16 3-22 9-7 7-10 14-10 23l0 78-55 0c-5 0-9 2-13 5-3 4-5 8-5 13 0 3 1 7 3 9l70 118 0 38-13 0-65-98c-5-8-13-12-22-12-8 0-15 3-20 8-5 5-8 12-8 19 0 6 2 11 5 15l73 110c14 21 31 31 50 31l110 0c19 0 36-10 50-31l73-110c3-4 5-9 5-15z m-119 229c0-18-6-33-19-45-12-13-27-19-45-19-18 0-33 6-45 19-13 12-19 27-19 45 0 18 6 33 19 45 12 13 27 19 45 19 18 0 33-6 45-19 13-12 19-27 19-45z"/>
<glyph unicode="&#57428;" d="M512 239c0-6-26-14-77-26l-94-8-59-17-17 0-79-94 19 0c4 0 8-1 12-1 3-1 5-2 5-3 0-2-2-3-5-3-4-1-8-2-12-2l-86 0 0 9 18 0 0 111-43 0-51-60-26 0-8 9 0 51 8 0 0 8 34 0 0 2-51 7 0 34 51 6 0 3-34 0 0 8-8 0 0 51 8 9 26 0 51-60 43 0 0 111-18 0 0 9 86 0c4 0 8-1 12-2 3 0 5-1 5-3 0-1-2-2-5-3-4-1-8-1-12-1l-19 0 79-94 17 0 59-17 94-8c47-11 72-19 77-25z"/>
<glyph unicode="&#57429;" d="M439 293l0-229c0-8-3-14-8-19-5-6-12-8-20-8l-310 0c-8 0-15 2-20 8-5 5-8 11-8 19l0 384c0 8 3 14 8 19 5 6 12 8 20 8l155 0 0-155c0-8 3-14 8-19 5-6 12-8 19-8z m-1 36l-145 0 0 146c15-3 28-9 37-19l89-89c10-10 16-22 19-38z"/>
<glyph unicode="&#57430;" d="M110 73l292 0 0 220-119 0c-7 0-14 2-19 8-5 5-8 11-8 19l0 119-146 0z m183 256l107 0c-2 6-4 10-6 12l-90 89c-2 3-6 5-11 7z m146-9l0-256c0-8-3-14-8-19-5-6-12-8-20-8l-310 0c-8 0-15 2-20 8-5 5-8 11-8 19l0 384c0 8 3 14 8 19 5 6 12 8 20 8l182 0c8 0 16-1 26-5 9-4 16-9 21-14l89-89c6-5 10-13 14-22 4-9 6-17 6-25z"/>
<glyph unicode="&#57431;" d="M366 119l0 18c0 3-1 5-3 7-2 1-4 2-6 2l-202 0c-2 0-4-1-6-2-2-2-3-4-3-7l0-18c0-3 1-5 3-7 2-1 4-2 6-2l202 0c2 0 4 1 6 2 2 2 3 4 3 7z m0 73l0 18c0 3-1 5-3 7-2 2-4 2-6 2l-202 0c-2 0-4 0-6-2-2-2-3-4-3-7l0-18c0-3 1-5 3-7 2-1 4-2 6-2l202 0c2 0 4 1 6 2 2 2 3 4 3 7z m73 101l0-229c0-8-3-14-8-19-5-6-12-8-20-8l-310 0c-8 0-15 2-20 8-5 5-8 11-8 19l0 384c0 8 3 14 8 19 5 6 12 8 20 8l155 0 0-155c0-8 3-14 8-19 5-6 12-8 19-8z m-1 36l-145 0 0 146c15-3 28-9 37-19l89-89c10-10 16-22 19-38z"/>
<glyph unicode="&#57432;" d="M494 338l0-201c0-17-7-32-19-45-13-13-28-19-45-19l-348 0c-17 0-32 6-45 19-12 13-19 28-19 45l0 274c0 18 7 33 19 46 13 12 28 18 45 18l92 0c17 0 32-6 45-18 12-13 19-28 19-46l0-9 192 0c17 0 32-6 45-19 12-12 19-27 19-45z"/>
<glyph unicode="&#57433;" d="M475 247c0 6-5 9-14 9l-290 0c-7 0-15-2-23-6-8-4-15-8-19-14l-79-97c-3-4-4-7-4-10 0-6 4-10 14-10l290 0c7 0 15 2 23 6 8 4 14 9 19 14l78 97c3 4 5 8 5 11z m-304 43l204 0 0 43c0 7-2 13-7 18-5 5-11 7-18 7l-154 0c-7 0-13 3-18 8-5 5-7 11-7 18l0 17c0 7-3 13-8 18-5 5-11 8-18 8l-85 0c-7 0-13-3-18-8-5-5-8-11-8-18l0-227 68 84c8 9 19 17 31 23 13 6 26 9 38 9z m338-43c0-11-4-22-12-32l-79-97c-8-10-18-17-31-23-13-7-25-10-37-10l-290 0c-17 0-31 6-42 18-12 12-18 26-18 42l0 256c0 16 6 30 18 42 11 12 25 18 42 18l85 0c16 0 30-6 42-18 12-12 18-26 18-42l0-8 145 0c16 0 30-6 42-18 12-12 18-26 18-42l0-43 51 0c9 0 18-2 26-6 8-5 14-11 18-19 3-6 4-12 4-18z"/>
<glyph unicode="&#57434;" d="M457 137l0 201c0 8-3 14-8 20-5 5-12 8-19 8l-201 0c-8 0-15 2-20 8-5 5-8 12-8 19l0 18c0 8-3 15-8 20-5 5-12 8-19 8l-92 0c-7 0-14-3-19-8-5-5-8-12-8-20l0-274c0-7 3-14 8-19 5-6 12-8 19-8l348 0c7 0 14 2 19 8 5 5 8 12 8 19z m37 201l0-201c0-17-7-32-19-45-13-13-28-19-45-19l-348 0c-17 0-32 6-45 19-12 13-19 28-19 45l0 274c0 18 7 33 19 46 13 12 28 18 45 18l92 0c17 0 32-6 45-18 12-13 19-28 19-46l0-9 192 0c17 0 32-6 45-19 12-12 19-27 19-45z"/>
<glyph unicode="&#57435;" d="M393 475c23 0 42-8 58-24 16-16 24-35 24-58l0-274c0-23-8-42-24-58-16-16-35-24-58-24l-274 0c-23 0-42 8-58 24-16 16-24 35-24 58l0 274c0 23 8 42 24 58 16 16 35 24 58 24z m-157-219c0 17-6 31-18 43-12 12-26 18-43 18-16 0-31-6-42-18-12-12-18-26-18-43 0-17 6-31 18-43 11-12 26-18 42-18 17 0 31 6 43 18 12 12 18 26 18 43z m161 0c0 17-6 31-18 43-11 12-26 18-42 18-17 0-31-6-43-18-12-12-18-26-18-43 0-17 6-31 18-43 12-12 26-18 43-18 16 0 31 6 42 18 12 12 18 26 18 43z"/>
<glyph unicode="&#57436;" d="M381 350c3-4 4-8 2-12l-154-331c-3-5-7-7-12-7-1 0-3 0-4 1-4 1-6 2-8 5-1 3-2 6-1 9l56 230-116-28c0-1-2-1-3-1-4 0-7 1-9 3-3 3-5 7-4 12l58 235c0 3 2 5 4 7 3 2 5 2 8 2l94 0c4 0 7-1 9-3 3-3 4-5 4-9 0-1-1-3-2-5l-48-132 113 28c1 0 2 1 3 1 4 0 7-2 10-5z"/>
<glyph unicode="&#57437;" d="M238 226l0 55c-35-3-71-14-110-33l0-53c39 18 76 29 110 31z m0 120l0 56c-33-2-70-14-110-36l0-54c41 21 78 32 110 34z m237-133l0 53c-44-22-81-29-109-20l0 64c-4 1-8 2-11 4-1 1-5 2-10 5-5 3-8 4-10 5-1 0-4 2-9 4-4 2-8 4-10 4-1 1-4 2-9 4-4 2-8 3-10 4-3 0-6 1-10 2-4 1-8 2-11 2-4 1-8 1-12 1-4 1-8 1-12 1-5 0-9 0-14-1l0-63 5 0c20 0 38-3 55-9 17-5 36-13 57-23 3-2 7-3 11-4l0-54c8-3 16-5 26-5 23 0 50 9 83 26z m0 122l0 54c-32-17-61-26-87-26-9 0-16 1-22 3l0-56c28-8 64 0 109 25z m-384 104c0-7-1-13-5-18-3-6-7-10-13-14l0-361c0-3-1-5-2-7-2-2-4-2-7-2l-18 0c-3 0-5 0-7 2-2 2-2 4-2 7l0 361c-6 4-10 8-14 14-3 5-5 11-5 18 0 10 4 19 11 26 7 7 16 10 26 10 10 0 19-3 26-10 7-7 10-16 10-26z m421-18l0-218c0-8-3-13-10-17-2-1-4-2-5-2-41-22-77-33-105-33-17 0-32 3-45 10l-8 4c-13 6-22 10-29 13-6 3-15 6-26 9-10 2-21 4-32 4-20 0-42-5-68-13-25-8-47-18-65-29-3-2-6-3-9-3-3 0-6 1-9 3-7 3-10 9-10 16l0 212c0 6 3 11 9 15 7 4 14 8 23 12 8 5 19 9 32 15 14 6 28 11 44 14 15 4 30 6 44 6 21 0 41-3 60-9 18-6 38-14 60-25 7-3 15-5 25-5 23 0 53 11 89 32 4 2 7 4 8 5 6 3 12 3 18-1 6-4 9-9 9-15z"/>
<glyph unicode="&#57438;" d="M475 213l0 176c-32-17-61-26-87-26-16 0-29 3-41 10-19 9-37 16-53 21-16 6-33 8-51 8-33 0-71-12-115-36l0-171c47 21 88 32 124 32 10 0 20-1 29-2 10-1 19-4 28-7 10-4 17-7 22-9 6-3 13-6 24-12l8-4c8-4 18-6 29-6 23 0 50 9 83 26z m-384 226c0-7-1-13-5-18-3-6-7-10-13-14l0-361c0-3-1-5-2-7-2-2-4-2-7-2l-18 0c-3 0-5 0-7 2-2 2-2 4-2 7l0 361c-6 4-10 8-14 14-3 5-5 11-5 18 0 10 4 19 11 26 7 7 16 10 26 10 10 0 19-3 26-10 7-7 10-16 10-26z m421-18l0-218c0-8-3-13-10-17-2-1-4-2-5-2-41-22-77-33-105-33-17 0-32 3-45 10l-8 4c-13 6-22 10-29 13-6 3-15 6-26 9-10 2-21 4-32 4-20 0-42-5-68-13-25-8-47-18-65-29-3-2-6-3-9-3-3 0-6 1-9 3-7 3-10 9-10 16l0 212c0 6 3 11 9 15 7 4 14 8 23 12 8 5 19 9 32 15 14 6 28 11 44 14 15 4 30 6 44 6 21 0 41-3 60-9 18-6 38-14 60-25 7-3 15-5 25-5 23 0 53 11 89 32 4 2 7 4 8 5 6 3 12 3 18-1 6-4 9-9 9-15z"/>
<glyph unicode="&#57439;" d="M91 439c0-14-6-24-18-32l0-361c0-3-1-5-3-7-1-2-4-2-6-2l-18 0c-3 0-5 0-7 2-2 2-2 4-2 7l0 361c-13 8-19 18-19 32 0 10 4 19 11 26 7 7 16 10 26 10 10 0 19-3 26-10 7-7 10-16 10-26z m421-18l0-218c0-5-1-9-4-11-2-3-6-6-11-8-41-22-76-33-105-33-12 0-24 2-36 6-11 4-22 9-31 14-8 5-19 9-33 13-13 4-26 7-40 7-37 0-81-14-133-42-3-2-6-3-9-3-5 0-10 2-13 6-4 3-6 8-6 13l0 212c0 6 3 11 9 15 4 3 12 7 23 13 45 22 85 34 120 34 21 0 40-3 57-8 18-6 39-14 63-26 7-3 15-5 25-5 10 0 21 2 34 6 12 4 22 8 31 13 9 5 17 10 25 14 8 4 13 6 16 6 5 0 9-2 13-6 3-3 5-7 5-12z"/>
<glyph unicode="&#57440;" d="M201 457c0 5-2 9-5 13-4 4-8 5-13 5-5 0-9-1-13-5-4-4-5-8-5-13 0-5 1-9 5-13 4-3 8-5 13-5 5 0 9 2 13 5 3 4 5 8 5 13z m256 9l0-91c0-3-1-6-3-7-2-2-4-2-6-2-1 0-1 0-2 0l-128 27c-2 1-4 2-5 4-1 1-2 3-2 5l-73 0 0-29c21-4 38-15 52-32 14-16 21-36 21-58l0-228c0-5-2-9-6-13-3-4-7-5-12-5l-147 0c-5 0-9 1-13 5-3 4-5 8-5 13l0 228c0 21 6 39 18 55 12 16 27 27 46 33l0 31-9 0c-11 0-22-2-33-6-11-5-19-10-26-16-7-5-13-12-19-19-6-7-10-12-12-15-1-3-3-5-4-7-3-7-8-10-16-10-3 0-6 1-8 2-5 2-8 6-9 11-2 4-1 9 1 14 1 2 2 4 4 7 2 3 5 8 11 15 5 8 11 14 17 20 6 7 14 13 24 20 10 6 21 11 31 15-4 8-7 16-7 24 0 13 5 23 14 32 9 9 19 14 32 14 12 0 23-5 32-14 9-9 14-19 14-32 0-6-2-12-4-18l86 0c0 2 1 4 2 6 1 1 3 2 5 3l128 27c1 0 1 0 2 0 2 0 4 0 6-2 2-1 3-4 3-7z"/>
<glyph unicode="&#57441;" d="M457 27l0-18c0-2-1-4-3-6-1-2-4-3-6-3l-384 0c-2 0-5 1-6 3-2 2-3 4-3 6l0 18c0 3 1 5 3 7 1 2 4 3 6 3l384 0c2 0 5-1 6-3 2-2 3-4 3-7z m-73 302c0-15-2-28-7-41-5-13-11-23-18-32-8-9-16-17-25-25-9-8-19-16-28-22-9-7-17-14-25-21-7-7-13-15-18-23-5-9-7-18-7-28 0-18 6-39 19-64l-1 0 0 0c-17 8-32 16-45 24-14 8-27 17-40 28-13 11-24 23-32 35-9 13-16 27-21 43-5 17-8 34-8 53 0 15 2 29 7 41 5 13 11 23 18 32 8 9 16 18 25 25 9 8 19 16 28 23 9 6 17 13 25 20 7 7 13 15 18 23 5 9 7 18 7 28 0 18-6 39-19 64l1 0 0 0c17-8 32-16 45-24 14-8 27-17 40-28 13-11 24-23 32-35 9-13 16-27 21-43 5-17 8-34 8-53z"/>
<glyph unicode="&#57442;" d="M456 428c3-8 2-15-4-20l-141-141 0-212c0-8-4-14-11-17-3-1-5-1-7-1-6 0-10 1-13 5l-73 73c-4 4-6 8-6 13l0 139-141 141c-6 5-7 12-4 20 4 7 9 11 17 11l366 0c8 0 13-4 17-11z"/>
<glyph unicode="&#57443;" d="M102 68l0 34c0 5-1 9-5 12-3 4-7 5-12 5l-34 0c-4 0-8-1-12-5-3-3-5-7-5-12l0-34c0-4 2-8 5-12 4-3 8-5 12-5l34 0c5 0 9 2 12 5 4 4 5 8 5 12z m0 103l0 34c0 4-1 8-5 12-3 3-7 5-12 5l-34 0c-4 0-8-2-12-5-3-4-5-8-5-12l0-34c0-5 2-9 5-12 4-4 8-5 12-5l34 0c5 0 9 1 12 5 4 3 5 7 5 12z m0 102l0 34c0 5-1 9-5 12-3 4-7 5-12 5l-34 0c-4 0-8-1-12-5-3-3-5-7-5-12l0-34c0-5 2-9 5-12 4-3 8-5 12-5l34 0c5 0 9 2 12 5 4 3 5 7 5 12z m273-205l0 137c0 4-1 8-5 12-3 3-7 5-12 5l-204 0c-5 0-9-2-12-5-4-4-5-8-5-12l0-137c0-4 1-8 5-12 3-3 7-5 12-5l204 0c5 0 9 2 12 5 4 4 5 8 5 12z m-273 307l0 35c0 4-1 8-5 12-3 3-7 5-12 5l-34 0c-4 0-8-2-12-5-3-4-5-8-5-12l0-35c0-4 2-8 5-12 4-3 8-5 12-5l34 0c5 0 9 2 12 5 4 4 5 8 5 12z m376-307l0 34c0 5-2 9-5 12-4 4-8 5-12 5l-34 0c-5 0-9-1-12-5-4-3-5-7-5-12l0-34c0-4 1-8 5-12 3-3 7-5 12-5l34 0c4 0 8 2 12 5 3 4 5 8 5 12z m-103 205l0 137c0 4-1 8-5 12-3 3-7 5-12 5l-204 0c-5 0-9-2-12-5-4-4-5-8-5-12l0-137c0-5 1-9 5-12 3-3 7-5 12-5l204 0c5 0 9 2 12 5 4 3 5 7 5 12z m103-102l0 34c0 4-2 8-5 12-4 3-8 5-12 5l-34 0c-5 0-9-2-12-5-4-4-5-8-5-12l0-34c0-5 1-9 5-12 3-4 7-5 12-5l34 0c4 0 8 1 12 5 3 3 5 7 5 12z m0 102l0 34c0 5-2 9-5 12-4 4-8 5-12 5l-34 0c-5 0-9-1-12-5-4-3-5-7-5-12l0-34c0-5 1-9 5-12 3-3 7-5 12-5l34 0c4 0 8 2 12 5 3 3 5 7 5 12z m0 102l0 35c0 4-2 8-5 12-4 3-8 5-12 5l-34 0c-5 0-9-2-12-5-4-4-5-8-5-12l0-35c0-4 1-8 5-12 3-3 7-5 12-5l34 0c4 0 8 2 12 5 3 4 5 8 5 12z m34 43l0-358c0-12-4-22-13-30-8-9-18-13-30-13l-426 0c-12 0-22 4-30 13-9 8-13 18-13 30l0 358c0 12 4 22 13 30 8 9 18 13 30 13l426 0c12 0 22-4 30-13 9-8 13-18 13-30z"/>
<glyph unicode="&#57444;" d="M485 402c7 0 14-2 19-8 5-5 8-12 8-19l0-348c0-7-3-14-8-19-5-5-12-8-19-8l-275 0c-7 0-14 3-19 8-5 5-8 12-8 19l0 83-156 0c-7 0-14 2-19 8-5 5-8 12-8 19l0 192c0 8 2 16 6 25 4 9 8 17 13 22l117 117c5 5 13 9 22 13 9 4 17 6 25 6l119 0c7 0 14-3 19-8 5-5 8-12 8-19l0-94c13 7 25 11 37 11z m-156-61l-85-85 85 0z m-183 110l-85-85 85 0z m56-185l91 91 0 118-110 0 0-118c0-8-3-15-8-20-5-5-12-8-20-8l-118 0 0-183 146 0 0 73c0 8 2 16 6 26 3 9 8 16 13 21z m273-229l0 329-109 0 0-119c0-8-3-14-8-20-6-5-12-8-20-8l-119 0 0-182z"/>
<glyph unicode="&#57445;" d="M501 241c0-5-3-11-8-18l-90-105c-7-9-18-17-32-23-14-7-26-10-38-10l-290 0c-6 0-12 1-16 4-5 2-8 6-8 11 0 6 3 12 9 18l89 105c8 10 19 17 32 24 14 6 27 9 39 9l290 0c6 0 11-1 16-3 5-3 7-7 7-12z m-91 92l0-43-222 0c-17 0-34-4-53-13-18-8-33-19-44-31l-89-106-2-2c0 1 0 2 0 4 0 1 0 2 0 3l0 256c0 16 6 30 18 42 11 12 25 18 42 18l85 0c16 0 30-6 42-18 12-12 18-26 18-42l0-8 145 0c16 0 30-6 42-18 12-12 18-26 18-42z"/>
<glyph unicode="&#57446;" d="M225 352l-48-128c14 0 28-1 44-1 15 0 26 0 34 0 7 0 12 0 15 0l8 0c-6 18-15 41-26 69-10 25-19 45-27 60z m-201-315l-6 0 1 22c4 1 12 3 23 5 17 3 27 6 31 9 4 3 9 10 14 20l68 176 80 206 36 0 3-6 59-137c19-46 31-74 35-85 8-19 17-41 28-67 5-11 11-26 18-47 5-12 11-27 19-42 4-9 7-15 10-16 4-4 11-6 20-7 9-1 18-4 29-8 1-7 2-13 2-16 0-3 0-5-1-7-15 0-33 0-54 2-18 1-36 2-54 2-15 0-28 0-39 0l-57-4-17 0c0 8 1 16 1 22l38 8c11 3 17 5 19 7 3 2 4 5 4 7 0 3-1 6-2 10l-13 32-27 65-128 1c-6-13-16-39-30-78-4-13-7-21-7-24 0-6 2-10 5-13 5-4 15-7 30-9 0 0 2 0 4 0 2-1 4-1 8-2 4 0 8-1 12-2 0-5 0-10 0-16 0-3 0-6-1-8-12 0-45 2-99 6l-14-2c-15-3-31-4-48-4z"/>
<glyph unicode="&#57447;" d="M475 256c0-48-14-91-41-129-28-38-64-65-109-79-5-1-8-1-11 2-2 2-3 5-3 8l0 61c0 18-5 32-15 40 11 1 20 3 29 5 9 3 18 6 27 11 9 6 17 12 23 19 6 8 11 18 15 30 4 13 6 27 6 43 0 23-8 43-23 59 7 18 7 37-2 59-5 1-13 0-23-4-10-3-19-8-26-12l-11-7c-18 5-36 7-55 7-19 0-37-2-55-7-3 2-7 5-12 8-5 3-13 6-24 11-11 4-19 5-24 4-9-22-9-41-2-59-15-16-23-36-23-59 0-16 2-30 6-42 4-13 9-23 15-30 6-8 14-14 23-20 9-5 18-8 27-11 8-2 18-4 29-5-8-7-12-17-14-29-4-2-8-4-13-5-4-1-10-1-16-1-6 0-13 2-19 6-6 4-11 10-16 18-3 6-8 11-14 15-5 4-10 6-14 7l-5 1c-4 0-7-1-9-2-1-1-2-2-1-3 0-1 1-3 2-4 2-1 3-2 4-3l2-2c4-2 8-5 13-11 4-5 7-10 9-14l2-7c3-7 7-13 13-17 6-5 12-8 19-9 7-1 14-2 20-2 6 0 12 0 16 1l6 1c0-7 0-16 1-25 0-10 0-15 0-16 0-3-2-6-4-8-2-3-6-3-11-2-45 14-81 41-109 79-27 38-41 81-41 129 0 40 9 77 29 110 20 34 46 60 80 80 33 20 70 29 110 29 40 0 77-9 110-29 34-20 60-46 80-80 20-33 29-70 29-110z"/>
<glyph unicode="&#57448;" d="M31 40c-3-3-7-5-9-3-2 1-4 4-4 9l0 420c0 5 2 8 4 9 2 2 6 0 9-3l203-203c2-2 3-3 4-6l0 203c0 5 1 8 3 9 3 2 6 0 10-3l202-203c4-4 6-8 6-13 0-5-2-9-6-13l-202-203c-4-3-7-5-10-3-2 1-3 4-3 9l0 203c-1-2-2-4-4-6z"/>
<glyph unicode="&#57449;" d="M442 219l-168-167c-10-10-22-15-36-15-15 0-27 5-37 15l-168 167c-10 11-15 23-15 37 0 14 5 26 15 37l168 167c10 10 22 15 37 15 14 0 26-5 36-15l76-75-114-114-53 53c-8 8-18 12-29 12-11 0-20-4-28-11l-35-35c-8-8-12-17-12-28 0-11 4-21 12-29l116-116c6-6 13-9 20-11l1-1 8 0c12 0 21 4 29 12l176 176 1 0c10-11 15-23 15-37 0-14-5-26-15-37z m-22 179l34-34c3-3 4-6 4-10 0-4-1-8-4-11l-208-208c-4-3-7-4-11-4-1 0-1 0-2 0-3 0-6 2-8 4l-116 116c-3 3-4 7-4 11 0 4 1 7 4 10l34 34c3 3 6 4 10 4 4 0 8-1 10-4l72-72 164 164c3 3 7 5 11 5 4 0 7-2 10-5z"/>
<glyph unicode="&#57450;" d="M222 205l0 34c0 2-1 4-3 6-1 2-3 2-6 2l-51 0 0 52c0 2-1 4-2 6-2 1-4 2-6 2l-35 0c-2 0-4-1-6-2-1-2-2-4-2-6l0-52-51 0c-3 0-5 0-6-2-2-2-3-4-3-6l0-34c0-3 1-5 3-6 1-2 3-3 6-3l51 0 0-51c0-2 1-4 2-6 2-2 4-2 6-2l35 0c2 0 4 0 6 2 1 2 2 4 2 6l0 51 51 0c3 0 5 1 6 3 2 1 3 3 3 6z m153-17c0 9-3 17-10 24-6 7-14 10-24 10-9 0-17-3-24-10-6-7-10-15-10-24 0-10 4-18 10-24 7-7 15-10 24-10 10 0 18 3 24 10 7 6 10 14 10 24z m69 68c0 9-4 17-10 24-7 7-15 10-24 10-10 0-18-3-25-10-6-7-10-15-10-24 0-9 4-17 10-24 7-7 15-10 25-10 9 0 17 3 24 10 6 7 10 15 10 24z m68-34c0-38-13-70-40-97-27-26-59-40-97-40-34 0-64 12-90 34l-58 0c-26-22-56-34-90-34-38 0-70 14-97 40-27 27-40 59-40 97 0 38 13 70 40 96 27 27 59 40 97 40l238 0c38 0 70-13 97-40 27-26 40-58 40-96z"/>
<glyph unicode="&#57451;" d="M239 256c0 19-7 35-20 48-13 14-29 20-48 20-19 0-35-6-49-20-13-13-20-29-20-48 0-19 7-35 20-48 14-14 30-20 49-20 19 0 35 6 48 20 13 13 20 29 20 48z m205-137c0 10-4 18-10 24-7 7-15 11-24 11-10 0-18-4-24-11-7-6-11-14-11-24 0-9 4-17 10-24 7-6 15-10 25-10 9 0 17 4 24 10 6 7 10 15 10 24z m0 274c0 9-4 17-10 24-7 6-15 10-24 10-10 0-18-4-24-10-7-7-11-15-11-24 0-10 4-18 10-25 7-6 15-10 25-10 9 0 17 4 24 10 6 7 10 15 10 25z m-103-113l0-49c0-2 0-4-2-5-1-2-2-3-4-3l-41-6c-2-7-5-13-9-21 6-8 14-18 24-30 2-2 2-4 2-6 0-2 0-4-2-5-4-5-11-13-22-24-10-10-17-16-21-16-2 0-3 1-5 2l-31 24c-6-3-13-6-20-8-2-19-4-33-7-41-1-5-3-7-8-7l-49 0c-2 0-4 1-5 2-2 2-3 3-3 5l-6 41c-6 2-13 4-20 8l-32-24c-1-1-3-2-5-2-2 0-4 1-6 3-25 23-38 37-38 42 0 2 1 4 2 5 2 3 5 8 11 14 5 7 9 13 12 17-4 8-7 15-9 22l-41 6c-1 0-3 1-4 3-1 1-2 3-2 5l0 49c0 2 1 4 2 5 1 2 3 3 4 3l41 6c2 7 5 13 9 21-6 8-14 18-24 30-1 2-2 4-2 6 0 2 1 4 2 5 4 5 11 13 22 24 11 10 18 16 21 16 2 0 4-1 6-2l30-24c6 3 13 6 21 8 2 19 4 33 6 41 1 5 4 7 8 7l49 0c2 0 4-1 6-2 1-2 2-3 2-5l7-41c6-2 12-4 20-8l31 24c1 1 3 2 5 2 2 0 4-1 6-3 26-23 38-37 38-42 0-2 0-4-1-5-3-3-6-8-12-15-5-6-9-12-12-16 4-8 7-16 9-22l41-6c2 0 3-1 4-3 2-1 2-3 2-5z m171-142l0-37c0-3-13-6-40-8-2-5-5-10-8-14 9-20 14-33 14-37 0-1 0-1-1-2-22-13-33-19-33-19-2 0-6 4-13 13-6 8-11 14-13 18-4-1-7-1-8-1-2 0-5 0-8 1-3-4-8-10-14-18-7-9-11-13-13-13 0 0-11 6-33 19 0 1-1 1-1 2 0 4 5 17 14 37-3 4-6 9-8 14-27 2-40 5-40 8l0 37c0 3 13 6 40 8 2 6 5 10 8 14-9 20-14 33-14 37 0 1 1 1 1 2 1 0 4 2 10 5 5 3 10 6 15 9 5 3 8 5 8 5 2 0 6-5 13-13 6-8 11-14 14-18 3 1 6 1 8 1 1 0 4 0 8-1 9 13 17 23 24 30l2 1c0 0 11-7 33-19 1-1 1-1 1-2 0-4-5-17-14-37 3-4 6-8 8-14 27-2 40-5 40-8z m0 273l0-37c0-3-13-6-40-8-2-5-5-10-8-14 9-20 14-33 14-37 0-1 0-1-1-2-22-13-33-19-33-19-2 0-6 4-13 13-6 8-11 14-13 18-4-1-7-1-8-1-2 0-5 0-8 1-3-4-8-10-14-18-7-9-11-13-13-13 0 0-11 6-33 19 0 1-1 1-1 2 0 4 5 17 14 37-3 4-6 9-8 14-27 2-40 5-40 8l0 37c0 3 13 6 40 8 2 6 5 10 8 14-9 20-14 33-14 37 0 1 1 1 1 2 1 0 4 2 10 5 5 4 10 7 15 9 5 3 8 5 8 5 2 0 6-4 13-13 6-8 11-14 14-18 3 1 6 1 8 1 1 0 4 0 8-1 9 13 17 23 24 30l2 1c0 0 11-7 33-19 1-1 1-1 1-2 0-4-5-17-14-37 3-4 6-8 8-14 27-2 40-5 40-8z"/>
<glyph unicode="&#57452;" d="M201 165c0-8-1-16-3-24-3-8-7-15-13-22-6-6-12-9-20-9-8 0-15 3-21 9-6 7-10 14-12 22-3 8-4 16-4 24 0 7 1 15 4 23 2 8 6 15 12 22 6 6 13 9 21 9 8 0 14-3 20-9 6-7 10-14 13-22 2-8 3-16 3-23z m183 0c0-8-1-16-4-24-2-8-6-15-12-22-6-6-13-9-21-9-8 0-14 3-20 9-6 7-10 14-13 22-2 8-3 16-3 24 0 7 1 15 3 23 3 8 7 15 13 22 6 6 12 9 20 9 8 0 15-3 21-9 6-7 10-14 12-22 3-8 4-16 4-23z m46 0c0 22-7 42-20 58-13 16-31 24-53 24-8 0-27-2-56-6-14-2-29-3-45-3-16 0-31 1-45 3-29 4-47 6-56 6-22 0-40-8-53-24-13-16-20-36-20-58 0-17 3-32 9-44 7-13 14-23 24-30 9-7 21-13 34-17 14-4 28-7 40-8 13-2 27-2 43-2l48 0c16 0 30 0 43 2 12 1 26 4 40 8 13 4 25 10 34 17 10 7 17 17 24 30 6 12 9 27 9 44z m64 50c0-40-6-71-18-95-7-14-17-27-30-38-13-10-26-19-40-24-14-6-30-11-49-14-18-3-34-5-49-6-14-1-30-1-47-1-15 0-29 0-41 0-12 1-26 2-42 4-16 2-31 5-44 9-13 3-26 8-39 14-13 6-24 14-34 23-11 10-19 21-25 33-12 24-18 55-18 95 0 45 13 83 39 113-5 16-8 32-8 49 0 22 5 42 15 62 21 0 39-4 54-11 16-8 34-20 54-36 28 7 58 10 89 10 28 0 54-3 80-9 20 16 37 27 53 35 16 7 34 11 54 11 10-20 15-40 15-62 0-17-3-33-8-48 26-31 39-69 39-114z"/>
<glyph unicode="&#57453;" d="M149 126c-1-2-3-2-6 1-2 2-2 3-1 5 2 2 4 1 6-1 2-2 3-4 1-5z m-12 17c2-2 2-4 0-5-1-1-3-1-5 2-1 2-1 4 0 5 2 1 4 1 5-2z m-17 17c-1-1-2-1-4 0-2 1-3 2-2 3 1 1 2 1 4 1 2-1 2-2 2-4z m9-9c-2-2-3-1-5 0-2 3-2 4-1 5 2 1 3 1 5-1 2-2 2-3 1-4z m36-32c0-3-2-3-5-2-3 1-4 2-4 4 1 2 3 3 6 2 3-1 4-2 3-4z m18-2c0-2-1-3-4-3-3 0-5 1-5 3 0 2 2 3 5 3 3 1 4 0 4-3z m17 3c0-2-1-3-4-4-3-1-5 0-5 2-1 3 1 4 4 5 3 0 5-1 5-3z m275 273l0-274c0-23-8-42-24-58-16-16-35-24-58-24l-64 0c-3 0-5 0-7 0-1 0-3 1-5 1-3 1-4 2-5 4-1 2-1 5-1 8l0 69c0 18-5 32-15 40 11 1 20 3 29 5 9 3 18 6 27 11 9 6 17 12 23 19 6 8 11 18 15 30 4 13 6 27 6 43 0 23-8 43-23 59 7 18 7 37-2 59-5 1-13 0-23-4-10-3-19-8-26-12l-11-7c-18 5-36 7-55 7-19 0-37-2-55-7-3 2-7 5-12 8-5 3-13 6-24 11-11 4-19 5-24 4-9-22-9-41-2-59-15-16-23-36-23-59 0-16 2-30 6-42 4-13 9-23 15-30 6-8 14-14 23-20 9-5 18-8 27-11 8-2 18-4 29-5-8-7-12-17-14-29-4-2-8-4-13-5-4-1-10-1-16-1-6 0-13 2-19 6-6 4-11 10-16 18-3 6-8 11-14 15-5 4-10 6-14 7l-5 1c-4 0-7-1-9-2-1-1-2-2-1-3 0-1 1-3 2-4 2-1 3-2 4-3l2-2c4-2 8-5 13-11 4-5 7-10 9-14l2-7c3-7 7-13 13-17 6-5 12-8 19-9 7-1 14-2 20-2 6 0 12 0 16 1l6 1c0-7 0-17 1-29 0-13 0-19 0-20 0-4-1-7-3-9-3-2-5-4-7-4-2 0-5 0-9 0l-64 0c-23 0-42 8-58 24-16 16-24 35-24 58l0 274c0 23 8 42 24 58 16 16 35 24 58 24l274 0c23 0 42-8 58-24 16-16 24-35 24-58z"/>
<glyph unicode="&#57454;" d="M257 140l100 135c3 4 6 10 7 17 2 7 1 15-1 24-3 9-9 17-18 23-7 5-15 7-24 7-8 0-15-2-21-5-5-3-11-7-15-13-7-7-16-11-28-11-11 0-20 4-27 11-4 6-9 10-15 13-6 3-13 5-21 5-8 0-16-2-24-7-9-6-15-14-18-23-2-9-3-17-1-24 1-7 4-13 7-17z m218 116c0-40-9-77-29-110-20-34-46-60-80-80-33-20-70-29-110-29-40 0-77 9-110 29-34 20-60 46-80 80-20 33-29 70-29 110 0 40 9 77 29 110 20 34 46 60 80 80 33 20 70 29 110 29 40 0 77-9 110-29 34-20 60-46 80-80 20-33 29-70 29-110z"/>
<glyph unicode="&#57455;" d="M485 459c0-7-4-14-12-22l-180-181 0-219 91 0c5 0 9-2 13-6 3-3 5-8 5-13 0-5-2-9-5-13-4-3-8-5-13-5l-256 0c-5 0-9 2-13 5-3 4-5 8-5 13 0 5 2 10 5 13 4 4 8 6 13 6l91 0 0 219-180 181c-8 8-12 15-12 22 0 4 1 8 5 10 3 3 7 5 11 5 3 1 7 1 12 1l402 0c5 0 9 0 12-1 4 0 8-2 11-5 4-2 5-6 5-10z"/>
<glyph unicode="&#57456;" d="M256 475c40 0 77-9 110-29 34-20 60-46 80-80 20-33 29-70 29-110 0-40-9-77-29-110-20-34-46-60-80-80-33-20-70-29-110-29-40 0-77 9-110 29-34 20-60 46-80 80-20 33-29 70-29 110 0 40 9 77 29 110 20 34 46 60 80 80 33 20 70 29 110 29z m78-148c0-1-1-2-2-3-2-2-3-3-4-3 0 0 1 1 1 2 0 1 1 2 1 3 1 1 1 2 1 2 2 1 4 2 7 4 2 1 7 2 15 3 6 2 11 1 14-3 0 1 1 2 3 4 2 2 3 3 4 3 1 1 2 1 4 2 3 0 4 1 5 2l0 6c-2 0-4 1-5 2-1 2-2 4-2 6 0 0 0-1-1-2 0 1-1 2-2 2-1 0-2 0-3 0-1-1-2-1-3 0-1 0-3 1-4 2-1 1-2 2-2 4-1 3-1 4-1 5-1 1-2 2-3 3-1 1-2 2-3 3 0 0 0 1 0 1-1 1-1 2-1 2-1 1-1 1-1 2-1 0-1 0-2 0-1 0-1 0-2-1-1-1-1-2-2-3-1-1-1-1-1-1-1 0-2 0-2 0-1 0-1 0-1 0-1 0-1-1-2-1 0 0-1-1-1-1-1 0-2-1-3-1-1 0-1 0-2 0 3 1 3 2 0 3-2 0-4 1-5 1 2 0 3 1 2 3 0 2-1 3-2 4l1 0c0 1-1 2-2 2-2 1-3 2-5 3-2 1-3 1-4 2-1 1-5 1-10 2-5 1-8 1-9 0-1-1-1-2-1-3 0 0 0-2 1-4 1-1 1-3 1-3 0-1 0-3-2-4-1-1-2-2-2-3 0-2 2-3 4-5 3-1 4-3 3-6 0-1-2-3-4-4-3-2-4-3-5-4-1-1-1-3 0-5 0-2 1-4 3-5 0 0 0-1 0-1 0 0 0-1-1-1 0-1-1-1-1-1-1-1-2-1-2-1l-1-1c-2-1-4 0-6 2-2 2-3 4-4 7-1 5-3 8-4 9-5 1-8 1-9-1-1 3-5 5-11 8-5 2-11 2-17 1 1 0 1 2 0 4-1 3-3 4-5 4 0 1 1 3 1 5 0 2 0 3 0 4 1 2 2 4 3 6 1 0 1 1 2 3 2 1 2 2 3 3 1 2 1 2 0 2 7-1 12 0 15 3 1 1 2 3 3 5 1 2 2 4 3 5 2 1 3 2 4 2 1-1 2-1 4-2 2-1 3-1 4-1 3-1 4 0 5 3 0 2-1 4-3 5 3 0 3 2 1 5-1 2-1 2-2 3-2 1-5 0-8-2-1 0-1-1 1-2 0 0-1-1-3-3-1-2-3-4-5-5-1-1-3-1-4 2 0 0-1 1-2 3-1 3-1 4-2 4-2 0-3-1-5-4 1 2 0 3-3 4-3 2-5 2-7 3 4 2 3 4-2 7-2 1-4 2-6 2-3 0-5 0-6-1-1-2-1-3-1-4 0-1 0-1 1-2 1-1 2-1 3-2 1 0 2 0 3-1 2 0 2 0 3-1 3-1 3-3 2-4 0 0-1 0-2-1-2 0-3 0-4-1-1 0-1-1-1-1-1-1-1-2 0-4 0-2 0-3-1-4-1 1-2 3-2 5-1 2-2 4-2 5 1-2-1-3-8-2l-2 0c-1 0-3 0-5 0-2-1-4-1-6-1-1 1-3 1-4 3 0 1 0 3 0 5 0 1 1 1 1 1 0 1-1 1-3 3-1 1-2 2-3 2-8-3-17-7-26-12 1 0 2 0 3 1 1 0 2 1 4 2 1 0 2 1 3 1 6 3 10 3 12 2l1 2c3-3 5-6 6-8-2 1-4 1-9 1-4-1-6-3-6-4 1-2 2-4 1-5 0 1-2 2-3 3-1 1-3 2-4 3-1 1-3 1-4 2-3 0-6-1-7-1-28-15-50-36-67-63 1-1 3-2 4-2 0-1 1-1 1-3 0-2 0-3 1-3 0-1 1 0 3 1 2-2 2-4 1-6 0 0 4-2 12-7 4-4 6-6 6-6 1-3 0-4-2-6-1 1-1 2-3 3-2 1-2 2-3 1 0-1 0-3 1-5 0-3 1-4 3-4-2 0-3-1-3-4-1-3-1-7-1-10 0-4 0-6 0-7l0 0c0-3 0-6 2-10 2-5 4-6 6-6-2 0 0-5 6-12 1-2 2-3 2-3 1 0 2-1 4-2 1-1 3-2 4-3 1-1 2-2 3-3 0-1 1-3 3-6 1-3 2-6 4-7-1-1 0-3 2-6 2-2 3-4 3-6 0 0 0 0 0 0-1-1-1-1-1-1 0-1 2-2 4-4 3-1 4-2 5-3 0-1 0-2 0-3 0-2 1-3 1-3 1-1 1-1 2-1 1 4-1 10-6 18-3 4-5 7-5 8-1 1-1 2-2 4 0 2-1 4-1 5 0 0 1-1 2-1 0 0 1 0 2-1 1 0 2-1 2-1 1 0 1-1 1-1-1-1-1-3 0-5 1-2 2-4 4-5 1-2 3-3 5-6 1-2 3-3 3-3 1-1 2-3 4-6 2-2 2-4 0-4 2 0 4-1 6-3 2-1 3-3 5-5 1-2 1-4 2-8 0-3 1-5 1-7 1-1 1-2 3-3 1-2 2-3 3-3l5-2c0 0 1-1 4-2 1-1 2-2 5-3 2-2 4-3 6-4 2 0 3-1 5-1 1 0 2 0 4 1 1 0 3 1 4 1 2 0 5-1 8-4 3-4 5-6 6-6 7-4 12-5 16-4-1 0-1 0 0-2 0-1 1-2 2-4 1-2 2-3 3-4 0-1 1-2 1-3 1-1 3-2 5-4 3-2 4-3 5-4 2 0 2 1 2 2 0-1 1-3 2-5 2-3 4-4 6-3 2 0 4 3 4 9-6-3-11-1-14 5 0 0-1 1-1 2-1 0-1 1-1 2-1 1-1 2-1 2 0 1 0 2 0 3 0 0 1 0 1 0 2 0 3 1 3 1 0 1 0 2 0 4-1 2-1 3-1 4-1 1-2 3-4 5-1 3-3 4-3 5-1-2-2-3-5-3-2 1-3 1-4 3 0 0 0-1-1-2 0 0 0-1 0-1-2 0-4 0-4 0 0 0 0 2 0 5 1 3 1 5 1 6 1 1 1 2 2 4 1 1 2 3 2 4 1 1 1 2 1 3 0 2 0 2-1 3-1 1-3 1-5 1-4 0-6-2-7-6-1 0-1-1-1-3-1-1-1-2-2-3 0-1-1-2-2-2-2-1-4-1-7-1-3 0-6 1-7 2-2 1-5 4-6 8-2 4-3 8-3 11 0 1 0 4 1 7 0 3 0 6 0 7 1 2 0 4-1 7 0 1 1 2 2 3 2 1 3 2 3 3 1 0 1 0 2 0 0 1 0 1 1 0 0 0 1 0 1 1 0 0 1 1 1 2 0 0-1 0-1 0-1 1-1 1-1 1 1 0 4 0 8 1 4 1 6 0 8-1 2-2 5-2 6 1 0 0 0 1-1 3 0 1 0 2 0 3 1-5 4-6 8-2 1-1 2-1 5-2 2 0 4 0 5-1 0 0 1-1 2-2 0 0 1-1 1-1 1 0 1 0 2 0 0 1 1 1 2 2 2-3 3-5 4-7 2-7 3-12 5-12 1-1 2-1 3-1 1 0 1 1 1 3 1 1 1 3 0 4 0 1 0 2 0 3l0 3 0 5-1 2c-2 1-4 2-5 4-1 1 0 3 1 5 1 2 2 3 4 5 0 0 1 1 2 1 1 1 3 1 5 2 1 1 2 2 3 2 4 4 6 7 4 10 2 0 3 1 4 3-1 0-1 0-2 1-1 0-1 1-2 1-1 1-1 1-1 1 1 1 2 2 0 4 1 1 2 2 2 3 1 2 2 3 3 3 1-2 3-2 6 0 1 1 1 3 0 4 1 2 3 3 6 3 3 1 4 2 5 3 1 0 2 0 2 1 0 0 1 1 1 3 0 2 0 3 0 3 1 1 3 2 5 3 2 1 3 1 3 1l5 4c1 0 1 1 0 1 4-1 7 0 9 3 2 2 1 4-2 6 1 1 1 2 0 2-2 1-3 1-5 2 1 0 2 0 4 0 1 0 2 0 3 0 2 2 2 4-2 5-4 1-8 0-13-3z m-46-251c39 7 72 25 100 54-1 1-2 1-4 1-1 1-3 1-3 1-4 2-6 2-7 3 0 1 0 2-1 3 0 1-1 2-2 3-1 0-2 1-4 2-1 1-2 2-3 2 0 1-1 1-2 2-1 1-1 1-2 1 0 1-1 1-2 2-1 0-2 0-2 0-1 0-2 0-3 0l-1 0c-1 0-1-1-2-1 0 0-1-1-1-1-1 0-1 0-1-1 0 0 0 0 0 0-4 3-8 5-11 6-1 0-2 1-3 1-1 1-2 2-3 2-1 1-2 1-3 1-1 0-2-1-3-2-1-1-1-3-2-4 0-2 0-4 0-4-1 1-1 2 0 5 1 2 1 4 0 5 0 1-1 2-3 1-1 0-2 0-3-1-1 0-2-1-3-2-2-1-2-2-3-2 0 0-1-1-2-2-2-1-2-1-3-2 0-1-1-2-1-3-1-2-1-3-2-3 0 0-1 1-3 1-2 1-3 1-3 2 1-2 1-5 1-10 1-5 1-8 2-11 1-6 0-10-4-14-5-4-8-8-8-11-1-4 0-7 3-7 0-2 0-4-2-6-1-3-2-5-2-6 0-2 0-3 1-5z"/>
<glyph unicode="&#57457;" d="M230 57c0-7-1-14-3-20l-108 0c-18 0-35 5-49 16-15 10-25 25-30 42 5 8 11 16 20 22 9 6 18 11 29 14 10 3 20 6 30 7 10 1 20 2 31 2 6 0 10 0 14-1 1 0 4-2 8-6 5-3 8-5 10-6 1-1 4-3 9-7 4-3 7-5 9-7 2-2 4-4 8-7 3-4 6-6 7-9 2-2 4-5 6-8 3-4 4-7 5-10 1-3 2-7 3-11 1-3 1-7 1-11z m-83 100c-45-1-82-9-110-24l0 124c19-23 45-34 78-34 6 0 12 0 20 1-4-11-6-20-6-24 0-13 6-27 18-43z m49 146c0-19-4-34-12-46-9-11-22-17-41-17-9 0-19 2-27 7-9 5-16 12-23 20-6 8-11 17-16 26-4 10-8 20-10 30-2 10-3 19-3 28 0 19 5 34 15 48 10 13 23 19 41 19 13 0 24-4 34-11 10-8 18-18 24-30 6-12 10-25 13-37 3-13 5-25 5-37z m279 26l0-210c0-23-8-42-24-58-16-16-35-24-58-24l-134 0c8 13 12 28 12 44 0 13-3 25-7 35-4 11-9 20-16 27-6 7-13 14-20 20-7 7-14 13-21 17-6 5-11 10-16 16-4 5-6 11-6 17 0 7 2 13 7 19 4 6 9 12 16 18 6 5 12 12 18 18 7 7 12 16 16 27 5 11 7 23 7 37 0 14-3 28-8 42-5 14-12 25-21 34-1 1-3 2-4 3-2 1-3 2-4 2-1 0-2 1-3 3-1 1-2 3-3 5l39 0 38 18-124 0c-27 0-50-4-70-11-21-7-38-20-52-38 0 24 7 44 23 61 15 16 35 24 59 24l274 0c23 0 42-8 58-24 16-16 24-35 24-58l0-27-73 0 0 73-36 0 0-73-73 0 0-37 73 0 0-73 36 0 0 73z"/>
<glyph unicode="&#57458;" d="M402 128l0 256c0 5-2 9-5 13-4 3-8 5-13 5l-37 0c-5 0-9-2-12-5-4-4-6-8-6-13l0-91-146 0 0 91c0 5-2 9-6 13-3 3-7 5-12 5l-37 0c-5 0-9-2-13-5-3-4-5-8-5-13l0-256c0-5 2-9 5-13 4-3 8-5 13-5l37 0c5 0 9 2 12 5 4 4 6 8 6 13l0 91 146 0 0-91c0-5 2-9 6-13 3-3 7-5 12-5l37 0c5 0 9 2 13 5 3 4 5 8 5 13z m73 265l0-274c0-23-8-42-24-58-16-16-35-24-58-24l-274 0c-23 0-42 8-58 24-16 16-24 35-24 58l0 274c0 23 8 42 24 58 16 16 35 24 58 24l274 0c23 0 42-8 58-24 16-16 24-35 24-58z"/>
</font>
</defs>
</svg>
